Важное объявление!
У Нас Все раздачи мультитрекерные, при нуле пиров в релизах, можете смело вставать на закачку!
 
Автор Сообщение

HUNTER

Стаж:
4 года 4 месяца
Сообщений:
56829

Репутация: 101

[+] [-]
Вне форума [Профиль] [ЛС]

Белоснежка / Snow White
Страна: США, Япония
Жанр: мультфильм, сказка
Продолжительность: 00:43:55
Год выпуска: 1995
Перевод: Профессиональный (дублированный)
Перевод: Профессиональный (двухголосый закадровый)
Русские субтитры: нет

Режиссёр: Тошиюки Хирума / Toshiyuki Hiruma, Такаши / Takashi
Роли озвучивали: Тони Эйл, Нэйтан Эсвелл, Чера Бэйли, Кэтлин Барр, Гари Чок, Лиллиэн Карлсон, Йен Джеймс Корлетт, Майкл Донован, Кент Галли, Фил Хэйес
Описание: В далеком королевства жила-была Белоснежка, и была она очень счастлива до тех пор, пока Волшебное Зеркало не рассказало злой и тщеславной Королеве, что Белоснежка гораздо красивее ее. Спасаясь от гнева Королевы, Белоснежка убежала подальше в темный и страшный лес, где случайно набрела на маленький домик, в котором жили семь гномов. Девушка осталась жить с маленькими добрыми человечками, но однажды у дверей появилась старая, сморщенная ведьма, и угостила Белоснежку очень спелым красным яблоком…-
-
-Большое спасибо [url=viewtopic.php?t=4674693]love bobcat[/url] за раздачу, откуда был взят двухголосый перевод, [url=viewtopic.php?t=4834461]644541[/url] за раздачу, откуда был взят дублированный перевод, [url=profile.php?mode=viewprofile&u=1793838]xfiles[/url] за реставрацию и синхронизацию дубляжа.-
-
-Качество: [url=viewtopic.php?t=4843959]DVDRip[/url]
Формат: AVI
Видео: 640x480 (1.33:1), 25 fps, XviD build 73 ~1770 kbps avg, 0.23 bit/pixel
Аудио: 48 kHz, AC3 Dolby Digital, 1/0 (C) ch, ~128 kbps - дубляж
Аудио: 48 kHz, AC3 Dolby Digital, 2/0 (L,R) ch, ~192 kbps - двухголосый
Аудио: 48 kHz, AC3 Dolby Digital, 2/0 (L,R) ch, ~192 kbps - оригинал
Субтитры: отсутствуют

Подробные технические данные

ОбщееПолное имя : H:\The.Snow.White.1995.dvdrip_[745]_[teko].aviФормат : AVIФормат/Информация : Audio Video InterleaveРазмер файла : 724 МбайтПродолжительность : 43 м.Общий поток : 2304 Кбит/секПрограмма кодирования : VirtualDubMod 1.5.10.3 | www.virtualdub-fr.org || (build 2550/release)Библиотека кодирования : VirtualDubMod build 2550/release
ВидеоИдентификатор : 0Формат : MPEG-4 VisualПрофиль формата : Advanced Simple@L5Параметр BVOP формата : 2Параметр QPel формата : НетПараметр GMC формата : Без точки переходаПараметр матрицы формата : ВыборочнаяИдентификатор кодека : XVIDИдентификатор кодека/Подсказка : XviDПродолжительность : 43 м.Битрейт : 1772 Кбит/секШирина : 640 пикселейВысота : 480 пикселейСоотношение сторон : 4:3Частота кадров : 25,000 кадров/секЦветовое пространство : YUVСубдискретизация насыщенности : 4:2:0Битовая глубина : 8 битТип развёртки : ПрогрессивнаяМетод сжатия : С потерямиБит/(Пиксели*Кадры) : 0.231Размер потока : 557 Мбайт (77%)Библиотека кодирования : XviD 73
Аудио #1Идентификатор : 1Формат : AC-3Формат/Информация : Audio Coding 3Расширение режима : CM (complete main)Параметр Endianness формата : BigИдентификатор кодека : 2000Продолжительность : 43 м.Вид битрейта : ПостоянныйБитрейт : 128 Кбит/секКаналы : 1 каналРасположение каналов : Front: CЧастота : 48,0 КГцБитовая глубина : 16 битМетод сжатия : С потерямиРазмер потока : 40,2 Мбайт (6%)Выравнивание : Разделение по промежуткамПродолжительность промежутка : 40 мс. (1,00 видеокадр)Время предзагрузки промежутка : 500 мс.
Аудио #2Идентификатор : 2Формат : AC-3Формат/Информация : Audio Coding 3Расширение режима : CM (complete main)Параметр Endianness формата : BigИдентификатор кодека : 2000Продолжительность : 43 м.Вид битрейта : ПостоянныйБитрейт : 192 Кбит/секКаналы : 2 каналаРасположение каналов : Front: L RЧастота : 48,0 КГцБитовая глубина : 16 битМетод сжатия : С потерямиРазмер потока : 60,3 Мбайт (8%)Выравнивание : Разделение по промежуткамПродолжительность промежутка : 40 мс. (1,00 видеокадр)Время предзагрузки промежутка : 500 мс.
Аудио #3Идентификатор : 3Формат : AC-3Формат/Информация : Audio Coding 3Расширение режима : CM (complete main)Параметр Endianness формата : BigИдентификатор кодека : 2000Продолжительность : 43 м.Вид битрейта : ПостоянныйБитрейт : 192 Кбит/секКаналы : 2 каналаРасположение каналов : Front: L RЧастота : 48,0 КГцБитовая глубина : 16 битМетод сжатия : С потерямиРазмер потока : 60,3 Мбайт (8%)Выравнивание : Разделение по промежуткамПродолжительность промежутка : 40 мс. (1,00 видеокадр)Время предзагрузки промежутка : 500 мс.

Скриншоты

Релиз группы:
[url=viewtopic.php?t=1677970] [/url]
--

_________________
Показать сообщения:    

Текущее время: Сегодня 12:14

Часовой пояс: GMT



Вы не можете начинать темы
Вы не можете отвечать на сообщения
Вы не можете редактировать свои сообщения
Вы не можете удалять свои сообщения
Вы не можете голосовать в опросах
Вы не можете прикреплять файлы к сообщениям
Вы не можете скачивать файлы