Важное объявление!
У Нас Все раздачи мультитрекерные, при нуле пиров в релизах, можете смело вставать на закачку!
 
Автор Сообщение

HUNTER

Стаж:
4 года 4 месяца
Сообщений:
56765

Репутация: 101

[+] [-]
Вне форума [Профиль] [ЛС]

Белка и Стрелка: Лунные приключения
Страна: Россия
Жанр: Мультфильм
Продолжительность: 01:12:03
Год выпуска: 2013
Перевод: Не требуется
Русские субтитры: нет
Режиссёр: Александр Храмцов
Роли озвучивали: Нонна Гришаева, Марьяна Спивак, Евгений Миронов, Тимур Родригез, Сергей Гармаш, Лев Аксельрод, Илья Храмцов, Стася Кудякова, Алексей Колган, Роман Квашнин
Описание: На Земле начали происходить странные и загадочные явления, несущие угрозу для планеты. Их след ведет в космос, на темную сторону Луны. Раскрыть тайну века поручили отряду Казбека. Белка, Стрелка и вся команда веселых и отважных героев отправляются на Луну, чтобы выполнить опасную миссию. Страсть к приключениям, искрометный юмор и великий дух космического братства поддержат в минуту великой опасности и помогут раскрыть всю правду о Луне и ее обитателях.
Доп. материалы:
Как озвучивали мультфильм?
Трейлер
"Веня и луноход" тизер 1-4
Семпл: https://www.sendspace.com/file/xqgzfy
Качество: DVD5
Формат: DVD-video
Видео: MPEG Video; 5991 Кбит/сек; 720х576 (16:9); 25,000 кадров/сек; PAL
Аудио: AC-3; 448 Кбит/сек; 6 каналов; 48,0 КГц
Субтитры: Отсутствуют

DVDInfo

Title: Лунные приключения [rutracker.org]Size: 4.34 Gb ( 4 552 608,00 KBytes ) - DVD-5Enabled regions: 1, 2, 3, 4, 5, 6, 7, 8
VTS_01 : Play Length: 00:00:19 Video: PAL 4:3 (720x576) VBR Audio: Not specified (Dolby AC3, 2 ch)
VTS_02 : Play Length: 01:12:03 Video: PAL 16:9 (720x576) VBR, Auto Letterboxed Audio: Russian, AC3, 3/2 (L,C,R,SL,SR)+LFE ch, 448 kbps, Delay 0 mSec
VTS_03 : Play Length: 00:07:06 Video: PAL 16:9 (720x576) VBR, Auto Letterboxed Audio: Not specified (Dolby AC3, 2 ch)
VTS_04 : Play Length: 00:12:32 Video: PAL 16:9 (720x576) VBR, Auto Letterboxed Audio: Not specified (Dolby AC3, 2 ch)
VTS_05 : Play Length: 00:01:12 Video: PAL 16:9 (720x576) VBR, Auto Letterboxed Audio: Not specified (Dolby AC3, 2 ch)
VTS_06 : Play Length: 00:00:30 Video: PAL 16:9 (720x576) VBR, Auto Letterboxed Audio: Not specified (Dolby AC3, 2 ch)
VTS_07 : Play Length: 00:00:20 Video: PAL 16:9 (720x576) VBR, Auto Letterboxed Audio: Not specified (Dolby AC3, 2 ch)
VTS_08 : Play Length: 00:01:13 Video: PAL 16:9 (720x576) VBR, Auto Letterboxed Audio: Not specified (Dolby AC3, 2 ch)
VTS_09 : Play Length: 00:00:28 Video: PAL 16:9 (720x576) VBR, Auto Letterboxed Audio: Not specified (Dolby AC3, 2 ch)

Скриншоты меню

Скриншоты

mi

бщее
Полное имя : E:\закачки\Лунные приключения [rutracker.org]\VIDEO_TS\VTS_02_2.VOB
Формат : MPEG-PS
Размер файла : 1024 Мбайт
Продолжительность : 21 м.
Режим общего битрейта : Переменный
Общий поток : 6570 Кбит/сек
Видео
Идентификатор : 224 (0xE0)
Формат : MPEG Video
Версия формата : Version 2
Профиль формата : Main@Main
Параметр BVOP формата : Да
Параметр матрицы формата : По умолчанию
Параметр GOP формата : M=3, N=12
Продолжительность : 21 м.
Вид битрейта : Переменный
Битрейт : 5991 Кбит/сек
Максимальный битрейт : 8000 Кбит/сек
Ширина : 720 пикселей
Высота : 576 пикселей
Соотношение сторон : 16:9
Частота кадров : 25,000 кадров/сек
Стандарт вещания : PAL
Цветовое пространство : YUV
Субдискретизация насыщенности : 4:2:0
Битовая глубина : 8 бит
Тип развёртки : Прогрессивная
Метод сжатия : С потерями
Бит/(Пиксели*Кадры) : 0.578
Временной код первого кадра : 00:21:47:23
Оригинал временного кода : Group of pictures header
Размер потока : 934 Мбайт (91%)
Аудио
Идентификатор : 189 (0xBD)-128 (0x80)
Формат : AC-3
Формат/Информация : Audio Coding 3
Расширение режима : CM (complete main)
Параметр Endianness формата : Big
Режим смешивания : DVD-Video
Продолжительность : 21 м.
Вид битрейта : Постоянный
Битрейт : 448 Кбит/сек
Каналы : 6 каналов
Расположение каналов : Front: L C R, Side: L R, LFE
Частота : 48,0 КГц
Битовая глубина : 16 бит
Метод сжатия : С потерями
Задержка видео : -608 мс.
Размер потока : 69,8 Мбайт (7%)
Меню

_________________
Показать сообщения:    

Текущее время: Сегодня 22:11

Часовой пояс: GMT



Вы не можете начинать темы
Вы не можете отвечать на сообщения
Вы не можете редактировать свои сообщения
Вы не можете удалять свои сообщения
Вы не можете голосовать в опросах
Вы не можете прикреплять файлы к сообщениям
Вы не можете скачивать файлы