Важное объявление!
У Нас Все раздачи мультитрекерные, при нуле пиров в релизах, можете смело вставать на закачку!
 
Автор Сообщение

димитри37

Стаж:
3 года 9 месяцев
Сообщений:
1237

Репутация: 127

[+] [-]
Вне форума [Профиль] [ЛС]

Безымянная звезда (2 серии)
Жанр: мелодрама, трагикомедия
Год выпуска: 1978
Продолжительность: 02:08:25 (01:02:50 + 01:05:35)
Режиссер: Михаил Козаков
В ролях: Анастасия Вертинская, Игорь Костолевский, Михаил Козаков, Григорий Лямпе, Светлана Крючкова, Михаил Светин, Ирина Савина, Алла Будницкая, Илья Рутберг, Александр Пятков (озвучание - Рогволд Суховерко), Семён Берлин (озвучание - Юрий Саранцев), Евгений Тиличеев, Владимир Курашкин, Ольга Феофанова, Вера Линд
Описание: Румыния, 1930-е годы. Все жители маленького заштатного городка, - в котором принято здороваться с каждым встречным и придавать чрезмерно большое значение тому, что подумают соседи, - собираются на местном вокзале, чтобы полюбоваться на проходящий мимо без остановок дизель-электропоезд "Бухарест - Синая". Это, пожалуй, их единственное развлечение. Бывает на вокзале и учитель местной гимназии Марин Мирою, преподаватель космографии - мечтатель, романтик, идеалист. Но вот однажды случается чудо - ночью экспресс внезапно останавливается, и из него высаживают Мону, потому что у нее нет билета, и нечем за него заплатить. Вместо денег у нее есть только фишки из казино. Мирою, ставший случайным свидетелем этого происшествия, приглашает Мону к себе в дом. Эта встреча заставляет провинциального учителя и столичную красавицу по-новому взглянуть на мир и на самих себя...
Доп. информация: По одноименной пьесе ("Steaua fără nume", 1942) румынского драматурга Михаила Себастиана. Текст от автора - Михаил Козаков.
Сценарий: Александр Хмелик
Операторы: Владимир Иванов, Юрий Райский, Георгий Рерберг
Художник: Марк Каплан
Композитор: Эдисон Денисов
Ограничения на просмотр: для любой зрительской аудитории

Цитата

"Сценарий телеспектакля был написан и запущен в производство в 1970 году для цветной программы ТВ. Но после смены руководства редакция цветных передач перестала существовать, и начавшиеся репетиции с Олегом Далем - исполнителем главной роли (учитель астраномии Марин Мирою, которого в итоге сыграл Игорь Костолевский) - были прекращены. С большим трудом мне удалось, наконец, пробить постановку на Свердловской киностудии. Прошло семь лет, Олегу Далю исполнилось уже 29. И дело не в том, что он стал старше - он мог по возрасту играть эту роль. Дело в том, что улыбаться ему уже было довольно сложно..."
Михаил Козаков

Интересный факт

Фильм снимали на средства Свердловской киностудии, но на базе "Ленфильма" и в окрестностях Петербурга. Внешний вид, перрон вокзала, снятого в фильме, — станция Шувалово Октябрьской железной дороги.
Качество видео: DVDRip
Формат видео: AVI
Видео:
1 серия - 704x528 (1.33:1), 25 fps, XviD 1.2.1, 2035 kbps avg, 0.22 bit/pixel
2 серия - 704x528 (1.33:1), 25 fps, XviD 1.2.1, 1945 kbps avg, 0.21 bit/pixel
Аудио: 48 kHz, AC3 Dolby Digital, 3/2 (L,C,R,l,r) + LFE ch, 448.00 kbps avg

MI

Полное имя : Bezymjannaja zvezda\Part 1.avi
Формат : AVI
Формат/Информация : Audio Video Interleave
Размер файла : 1,09 Гбайт
Продолжительность : 1 ч. 2 м.
Общий поток : 2493 Кбит/сек
Программа кодирования : VirtualDubMod 1.5.10.3 (build 2550/release)
Библиотека кодирования : VirtualDubMod build 2550/release
Видео
Идентификатор : 0
Формат : MPEG-4 Visual
Профиль формата : Advanced Simple@L5
Параметр BVOP формата : 1
Параметр QPel формата : Нет
Параметр GMC формата : Без точки перехода
Параметр матрицы формата : Выборочная
Идентификатор кодека : XVID
Идентификатор кодека/Подсказка : XviD
Продолжительность : 1 ч. 2 м.
Битрейт : 2035 Кбит/сек
Ширина : 704 пикселя
Высота : 528 пикселей
Соотношение сторон : 4:3
Частота кадров : 25,000 кадров/сек
Цветовое пространство : YUV
Субдискретизация насыщенности : 4:2:0
Битовая глубина : 8 бит
Тип развёртки : Прогрессивная
Метод сжатия : С потерями
Бит/(Пиксели*Кадры) : 0.219
Размер потока : 915 Мбайт (82%)
Библиотека кодирования : XviD 1.2.1 (UTC 2008-12-04)
Аудио
Идентификатор : 1
Формат : AC-3
Формат/Информация : Audio Coding 3
Расширение режима : CM (complete main)
Параметр Endianness формата : Big
Идентификатор кодека : 2000
Продолжительность : 1 ч. 2 м.
Вид битрейта : Постоянный
Битрейт : 448 Кбит/сек
Каналы : 6 каналов
Расположение каналов : Front: L C R, Side: L R, LFE
Частота : 48,0 КГц
Битовая глубина : 16 бит
Метод сжатия : С потерями
Размер потока : 201 Мбайт (18%)
Выравнивание : Разделение по промежуткам
Продолжительность промежутка : 40 мс. (1,00 видеокадр)
Время предзагрузки промежутка : 500 мс.
Полное имя : Bezymjannaja zvezda\Part 2.avi
Формат : AVI
Формат/Информация : Audio Video Interleave
Размер файла : 1,10 Гбайт
Продолжительность : 1 ч. 5 м.
Общий поток : 2403 Кбит/сек
Программа кодирования : VirtualDubMod 1.5.10.3 (build 2550/release)
Библиотека кодирования : VirtualDubMod build 2550/release
Видео
Идентификатор : 0
Формат : MPEG-4 Visual
Профиль формата : Advanced Simple@L5
Параметр BVOP формата : 1
Параметр QPel формата : Нет
Параметр GMC формата : Без точки перехода
Параметр матрицы формата : Выборочная
Идентификатор кодека : XVID
Идентификатор кодека/Подсказка : XviD
Продолжительность : 1 ч. 5 м.
Битрейт : 1945 Кбит/сек
Ширина : 704 пикселя
Высота : 528 пикселей
Соотношение сторон : 4:3
Частота кадров : 25,000 кадров/сек
Цветовое пространство : YUV
Субдискретизация насыщенности : 4:2:0
Битовая глубина : 8 бит
Тип развёртки : Прогрессивная
Метод сжатия : С потерями
Бит/(Пиксели*Кадры) : 0.209
Размер потока : 913 Мбайт (81%)
Библиотека кодирования : XviD 1.2.1 (UTC 2008-12-04)
Аудио
Идентификатор : 1
Формат : AC-3
Формат/Информация : Audio Coding 3
Расширение режима : CM (complete main)
Параметр Endianness формата : Big
Идентификатор кодека : 2000
Продолжительность : 1 ч. 5 м.
Вид битрейта : Постоянный
Битрейт : 448 Кбит/сек
Каналы : 6 каналов
Расположение каналов : Front: L C R, Side: L R, LFE
Частота : 48,0 КГц
Битовая глубина : 16 бит
Метод сжатия : С потерями
Размер потока : 210 Мбайт (19%)
Выравнивание : Разделение по промежуткам
Продолжительность промежутка : 40 мс. (1,00 видеокадр)
Время предзагрузки промежутка : 500 мс.

Скриншоты названия

Показать сообщения:    

Текущее время: Сегодня 14:19

Часовой пояс: GMT



Вы не можете начинать темы
Вы не можете отвечать на сообщения
Вы не можете редактировать свои сообщения
Вы не можете удалять свои сообщения
Вы не можете голосовать в опросах
Вы не можете прикреплять файлы к сообщениям
Вы не можете скачивать файлы