Важное объявление!
У Нас Все раздачи мультитрекерные, при нуле пиров в релизах, можете смело вставать на закачку!
 
Автор Сообщение

HUNTER

Стаж:
4 года 4 месяца
Сообщений:
56719

Репутация: 101

[+] [-]
Вне форума [Профиль] [ЛС]

Безумный гонщик / Blood Car
Страна: США
Студия: Fake Wood Wallpaper
Жанр: ужасы, комедия
Год выпуска: 2007
Продолжительность: 01:16:18
Перевод 1: Профессиональный (двухголосый закадровый) R5
Перевод 2: Авторский (одноголосый закадровый) А. Дольский
Cубтитры: русские, французские
Оригинальная аудиодорожка: английский
Режиссер: Алекс Орр / Alex Orr
В ролях: Майк Бруне, Анна Кламски, Кэти Роулетт, Мэтт Хатчинсон, Марла Малкольм, Мистер Молт, Мэттью Стэнтон, Билл Зиманский, Ауми Гиллебо, Винс Канлас
Описание: Недалекое будущее. Планета на грани энергетического голода. Весь ученый мир занят только одной проблемой — разработкой альтернативного вида энергии! Молодой гений Арчи тоже одержим этой идеей, и мечтает создать «топливо века».
Но все его попытки ни к чему не приводят до тех пор, пока в его лабораторные материалы не попадает несколько капель человеческой крови. Результат превосходит все ожидания! Адская смесь оказывается лучше любого горючего. Решив испытать изобретение, наполняет им бак автомобиля и отправляется на сумасшедший тест-драйв по городским дорогам…
[img]https://rating.kinopoisk.ru/254653.gif[/img]
Сэмпл: http://sendfile.su/1270318
Тип релиза: BDRemux 1080p
Контейнер: MKV
Видео: 1920x1080 (16:9), 23.976 fps, AVC, 20201 kbps, 0.397 bits/pixel
Аудио 1: Russian, 48.0 KHz, AC3, 2 ch, 192 Kbps - MVO R5
Аудио 2: Russian, 48.0 KHz, AC3, 2 ch, 192 Kbps - AVO Дольский
Аудио 3: DTS-HD High-Res Audio English 2046 kbps 5.1 / 48 kHz / 2046 kbps / 24-bit (DTS Core: 5.1 / 48 kHz / 1509 kbps / 24-bit)
Формат субтитров: softsub (SRT)

MediaInfo

General
Unique ID : 187960806252833649198952750582805553318 (0x8D67EF3C4453E46F93EE66130BA3E0A6)
Complete name : D:\Blood Car 2007 BDRemux 1080p.mkv
Format : Matroska
Format version : Version 4 / Version 2
File size : 12.1 GiB
Duration : 1h 16mn
Overall bit rate mode : Variable
Overall bit rate : 22.6 Mbps
Encoded date : UTC 2016-09-30 12:03:16
Writing application : mkvmerge v7.0.0 ('Where We Going') 64bit built on Jun 9 2014 15:16:27
Writing library : libebml v1.3.0 + libmatroska v1.4.1
DURATION : 01:13:38.330000000
NUMBER_OF_FRAMES : 689
NUMBER_OF_BYTES : 20227
_STATISTICS_WRITING_APP : mkvmerge v7.0.0 ('Where We Going') 64bit built on Jun 9 2014 15:16:27
_STATISTICS_WRITING_DATE_UTC : 2016-09-30 12:03:16
_STATISTICS_TAGS : BPS DURATION NUMBER_OF_FRAMES NUMBER_OF_BYTES
Video
ID : 1
Format : AVC
Format/Info : Advanced Video Codec
Format profile : High@L4.1
Format settings, CABAC : Yes
Format settings, ReFrames : 3 frames
Format settings, GOP : M=3, N=12
Codec ID : V_MPEG4/ISO/AVC
Duration : 1h 16mn
Bit rate mode : Variable
Bit rate : 19.8 Mbps
Maximum bit rate : 35.0 Mbps
Width : 1 920 pixels
Height : 1 080 pixels
Display aspect ratio : 16:9
Frame rate mode : Constant
Frame rate : 23.976 fps
Standard : NTSC
Color space : YUV
Chroma subsampling : 4:2:0
Bit depth : 8 bits
Scan type : Progressive
Bits/(Pixel*Frame) : 0.397
Stream size : 10.5 GiB (87%)
Default : Yes
Forced : No
Color range : Limited
Color primaries : BT.709
Transfer characteristics : BT.709
Matrix coefficients : BT.709
Audio #1
ID : 2
Format : AC-3
Format/Info : Audio Coding 3
Mode extension : CM (complete main)
Format settings, Endianness : Big
Codec ID : A_AC3
Duration : 1h 16mn
Bit rate mode : Constant
Bit rate : 192 Kbps
Channel(s) : 2 channels
Channel positions : Front: L R
Sampling rate : 48.0 KHz
Compression mode : Lossy
Stream size : 105 MiB (1%)
Title : MVO R5
Language : Russian
Default : Yes
Forced : No
Audio #2
ID : 3
Format : AC-3
Format/Info : Audio Coding 3
Mode extension : CM (complete main)
Format settings, Endianness : Big
Codec ID : A_AC3
Duration : 1h 16mn
Bit rate mode : Constant
Bit rate : 192 Kbps
Channel(s) : 2 channels
Channel positions : Front: L R
Sampling rate : 48.0 KHz
Compression mode : Lossy
Stream size : 105 MiB (1%)
Title : AVO Дольский
Language : Russian
Default : No
Forced : No
Audio #3
ID : 4
Format : DTS
Format/Info : Digital Theater Systems
Format profile : HRA / Core
Mode : 16
Format settings, Endianness : Big
Codec ID : A_DTS
Duration : 1h 16mn
Bit rate mode : Constant
Bit rate : 2 046 Kbps / 1 509 Kbps
Channel(s) : 6 channels
Channel positions : Front: L C R, Side: L R, LFE
Sampling rate : 48.0 KHz
Bit depth : 24 bits
Compression mode : Lossy
Stream size : 1.09 GiB (9%)
Language : English
Default : No
Forced : No
Text #1
ID : 5
Format : UTF-8
Codec ID : S_TEXT/UTF8
Codec ID/Info : UTF-8 Plain Text
Language : Russian
Default : No
Forced : No
Text #2
ID : 6
Format : UTF-8
Codec ID : S_TEXT/UTF8
Codec ID/Info : UTF-8 Plain Text
Language : French
Default : No
Forced : No

Скриншоты


_________________
Показать сообщения:    

Текущее время: Сегодня 00:24

Часовой пояс: GMT



Вы не можете начинать темы
Вы не можете отвечать на сообщения
Вы не можете редактировать свои сообщения
Вы не можете удалять свои сообщения
Вы не можете голосовать в опросах
Вы не можете прикреплять файлы к сообщениям
Вы не можете скачивать файлы