Важное объявление!
У Нас Все раздачи мультитрекерные, при нуле пиров в релизах, можете смело вставать на закачку!
 
Автор Сообщение

HUNTER

Стаж:
4 года 4 месяца
Сообщений:
56749

Репутация: 101

[+] [-]
Вне форума [Профиль] [ЛС]

Безопасность в сети. Методы взлома и защиты--

  • Год выпуска: 2015
  • Страна: Россия
  • Тематика: Сеть, интернет, безопасность
  • Тип материала: Обучающее видео
  • Продолжительность: ~17 часов
  • Автор: Артем Воропаев
  • Язык: Русский-
  • Описание:
    Для людей с небольшими знаниями в области информационной безопасности. Требуется минимальное понимание устройства сетей и используемых в них протоколов. Приветствуется знание UNIX-подобных систем. Если этих знаний нет или их недостаточно, в курсе Вы сможете их получить.
    Чему Вы научитесь
    • Узнаете о ключевых сетевых протоколах, принципах работы
    • Узнаете о безопасности или небезопасности тех или иных протоколов, используемых в современных сетях
    • Узнаете о способах перехвата сетевого трафика
    • Научитесь выполнять анализ сетевого трафика
    • Узнаете о типовых сетевых атаках, применяемых хакерами в сетях
    • Научитесь выполнять ряд сетевых атак и познакомитесь с используемым для этих целей ПО
    • Познакомитесь с аудитом информационной безопасности сетевых сервисов
    • Узнаете о способах защиты от сетевых атак

    Программа курса:


    Урок 1. Основы построения компьютерных сетей
    -Сетевая Модель ISO/OSI;
    -Протокол IP;
    -Протокол TCP;
    -Протокол UDP;
    Урок 2. Введение в анализ сетевого трафика
    -Классификация сетевых атак;
    -Типичные сценарии проведения атак;
    -Анализ сетевого трафика;
    -Работа с wireshark, tcpdump;
    Урок 3. Пассивные сетевые атаки
    -Пассивные сетевые атаки;
    -Методы сканирования портов;
    -Методы удаленного определения версии;
    -операционной системы;
    -Методы выявления пакетных снифферов;
    Урок 4. Активные сетевые атаки (часть 1)
    -Активные атаки; Типовые MITM-атаки;
    -Работа с Intercepter-ng;
    -Атаки на протоколы маршрутизации;
    Урок 5. Активные сетевые атаки (часть 2)
    -Атаки на протокол TCP;
    -Атаки, направленные на отказ в обслуживании;
    -Несанкционированный обмен данными;
    -Способы обхода межсетевых экранов;
    Урок 6. Аудит безопасности типовых сетевых сервисов
    -Аудит безопасности типовых сетевых сервисов;
    -Аудит безопасности беспроводных сетей;
    -Знакомство и использование для аудита ИБ продукта Metasploit;
    -Знакомство и использование для аудита ИБ продукта OpenVAS;
    Урок 7. Межсетевые экраны
    -Понятие экранирования. Характеристики;
    -Классификация межсетевых экранов;
    -Применение межсетевых экранов в сетях;
    Урок 8. Анонимность и безопасность в сети
    -Ключевые сетевые протоколы, используемые для обеспечения безопасности;
    -Механизмы обеспечения анонимности;
    -Системы обнаружения вторжений
    --
  • Качество: PCRec
  • Формат: MP4
  • Видео кодек: AVC
  • Аудио кодек: AAC
  • Видео: avc1, 1280х720, ~49,6 kbps, ~15 fps
  • Аудио: AAC, 44.1 KHz, 2 ch stereo, ~64 Kbps
--

MI

Код: copyText_writeLink('this.parentNode.parentNode.nextSibling.nextSibling');
Код:
Общее
Полное имя                               : D:\Мастер-Класс\Безопасность в сети. Методы взлома и защиты (2015)\Урок 1\1.mp4
Формат                                   : MPEG-4
Профиль формата                          : Base Media
Идентификатор кодека                     : isom
Размер файла                             : 105 Мбайт
Продолжительность                        : 2 ч. 1 м.
Общий поток                              : 120 Кбит/сек
Исполнитель                              : "Recording #836047"
Программа кодирования                    : Lavf54.29.104
Видео
Идентификатор                            : 1
Формат                                   : AVC
Формат/Информация                        : Advanced Video Codec
Профиль формата                          : Main@L3.1
Параметр CABAC формата                   : Да
Параметр ReFrames формата                : 4 кадра
Идентификатор кодека                     : avc1
Идентификатор кодека/Информация          : Advanced Video Coding
Продолжительность                        : 2 ч. 1 м.
Битрейт                                  : 49,6 Кбит/сек
Ширина                                   : 1280 пикселей
Высота                                   : 720 пикселей
Соотношение сторон                       : 16:9
Режим частоты кадров                     : Постоянный
Частота кадров                           : 15,000 кадров/сек
Цветовое пространство                    : YUV
Субдискретизация насыщенности            : 4:2:0
Битовая глубина                          : 8 бит
Тип развёртки                            : Прогрессивная
Бит/(Пиксели*Кадры)                      : 0.004
Размер потока                            : 43,3 Мбайт (41%)
Библиотека кодирования                   : x264 core 132
Настройки программы                      : cabac=1 / ref=1 / deblock=1:0:0 / analyse=0x1:0x111 / me=hex / subme=2 / psy=1 / psy_rd=1.00:0.00 / mixed_ref=0 / me_range=16 / chroma_me=1 / trellis=0 / 8x8dct=0 / cqm=0 / deadzone=21,11 / fast_pskip=1 / chroma_qp_offset=0 / threads=4 / lookahead_threads=1 / sliced_threads=0 / nr=0 / decimate=1 / interlaced=0 / bluray_compat=0 / constrained_intra=0 / bframes=3 / b_pyramid=2 / b_adapt=1 / b_bias=0 / direct=1 / weightb=1 / open_gop=0 / weightp=1 / keyint=250 / keyint_min=15 / scenecut=40 / intra_refresh=0 / rc_lookahead=10 / rc=crf / mbtree=1 / crf=26.0 / qcomp=0.60 / qpmin=0 / qpmax=69 / qpstep=4 / ip_ratio=1.40 / aq=1:1.00
Аудио
Идентификатор                            : 2
Формат                                   : AAC
Формат/Информация                        : Advanced Audio Codec
Профиль формата                          : LC
Идентификатор кодека                     : 40
Продолжительность                        : 2 ч. 1 м.
Вид битрейта                             : Постоянный
Битрейт                                  : 64,0 Кбит/сек
Каналы                                   : 2 канала
Расположение каналов                     : Front: L R
Частота                                  : 44,1 КГц
Метод сжатия                             : С потерями
Размер потока                            : 55,9 Мбайт (53%)

Скриншоты





_________________
Показать сообщения:    

Текущее время: Сегодня 22:06

Часовой пояс: GMT



Вы не можете начинать темы
Вы не можете отвечать на сообщения
Вы не можете редактировать свои сообщения
Вы не можете удалять свои сообщения
Вы не можете голосовать в опросах
Вы не можете прикреплять файлы к сообщениям
Вы не можете скачивать файлы