Важное объявление!
У Нас Все раздачи мультитрекерные, при нуле пиров в релизах, можете смело вставать на закачку!
 
Автор Сообщение

HUNTER

Стаж:
4 года 4 месяца
Сообщений:
56829

Репутация: 101

[+] [-]
Вне форума [Профиль] [ЛС]

Безмолвная звезда / Der Schweigende Stern / Milczaca gwiazda
Страна: Германия (ГДР), Польша
Студия: DEFA, WFF Film Studio
Жанр: Фантастика
Год выпуска: 1960
Продолжительность: 01:29:46
Перевод 1: Профессиональный (дублированный)
Перевод 2: Профессиональный (многоголосый закадровый)
Cубтитры: английские
Оригинальная аудиодорожка: немецкий
Сэмпл: http://sendfile.su/1138468
Режиссер: Курт Мэтциг / Kurt Maetzig
В ролях: Олдржих Лукеш, Игнаци Маховски, Юлиус Онгеве, Йоко Тани, Михаил Постников, Курт Ракельманн, Гюнтер Зимон, Танг Хуа-Та, Люцина Винницка
Описание: По мотивам романа Станислава Лема "Астронавты". На строительстве в пустыне Гоби был найден цилиндр, на котором в виде магнитных импульсов были записаны данные о химическом составе Земли. Изучая эту находку советский ученый, профессор Арсеньев, устанавливает, что она упала на Землю из потерпевшего аварию космического корабля, летевшего на нашу планету с Венеры. Восемь ученых из разных стран решают отправиться на Венеру в советском космическом корабле "Космократор-1". Отправившись на Венеру, международный экипаж их восьми человек находит планету безжизненной, однако по-прежнему представляющей ядерную опасность. Чтобы не допустить новой глобальной катастрофы, космонавты вынуждены оставить на Венере нескольких членов команды...
Тип релиза: HDTVRip 720p
Контейнер: MKV
Видео: x264 1280x544 25fps 4855 Kbps
Аудио 1: AC3 48000Hz stereo 192 Kbps
Аудио 2: AC3 48000Hz stereo 192 Kbps
Аудио 3: AC3 48000Hz stereo 384 Kbps
Формат субтитров: softsub (SRT)

MediaInfo

General
Unique ID : 252974487651556600853767394688570464040 (0xBE511D3539DEECAF9BFB1D2D31F79728)
Complete name : C:\Documents and Settings\Администратор\Мои документы\Der Schweigende Stern (1960).mkv
Format : Matroska
Format version : Version 4 / Version 2
File size : 3.52 GiB
Duration : 1h 29mn
Overall bit rate : 5 626 Kbps
Movie name : Безмолвная звезда / Der Schweigende Stern / First Spaceship on Venus / 1960 / HDTVRip-720p
Encoded date : UTC 2015-07-05 17:40:46
Writing application : mkvmerge v7.8.0 ('River Man') 32bit built on Mar 27 2015 16:18:02
Writing library : libebml v1.3.1 + libmatroska v1.4.2
DURATION : 01:29:30.960000000
NUMBER_OF_FRAMES : 937
NUMBER_OF_BYTES : 36990
_STATISTICS_WRITING_APP : mkvmerge v7.8.0 ('River Man') 32bit built on Mar 27 2015 16:18:02
_STATISTICS_WRITING_DATE_UTC : 2015-07-05 17:40:46
_STATISTICS_TAGS : BPS DURATION NUMBER_OF_FRAMES NUMBER_OF_BYTES
Video
ID : 1
Format : AVC
Format/Info : Advanced Video Codec
Format profile : High@L3.1
Format settings, CABAC : Yes
Format settings, ReFrames : 4 frames
Codec ID : V_MPEG4/ISO/AVC
Bit rate : 4 855 Kbps
Width : 1 280 pixels
Height : 544 pixels
Display aspect ratio : 2.35:1
Frame rate mode : Variable
Original frame rate : 25.000 fps
Color space : YUV
Chroma subsampling : 4:2:0
Bit depth : 8 bits
Scan type : Progressive
Bits/(Pixel*Frame) : 0.279
Writing library : x264 core 114 r1913 5fd3dce
Encoding settings : cabac=1 / ref=3 / deblock=1:0:0 / analyse=0x3:0x113 / me=hex / subme=7 / psy=1 / psy_rd=1.00:0.00 / mixed_ref=1 / me_range=16 / chroma_me=1 / trellis=1 / 8x8dct=1 / cqm=0 / deadzone=21,11 / fast_pskip=1 / chroma_qp_offset=-2 / threads=3 / sliced_threads=0 / nr=0 / decimate=1 / interlaced=0 / constrained_intra=0 / bframes=3 / b_pyramid=2 / b_adapt=1 / b_bias=0 / direct=1 / weightb=1 / open_gop=0 / weightp=2 / keyint=250 / keyint_min=25 / scenecut=40 / intra_refresh=0 / rc_lookahead=40 / rc=2pass / mbtree=1 / bitrate=4855 / ratetol=1.0 / qcomp=0.60 / qpmin=0 / qpmax=69 / qpstep=4 / cplxblur=20.0 / qblur=0.5 / ip_ratio=1.40 / aq=1:1.00
Language : German
Default : Yes
Forced : No
DURATION : 01:29:35.880000000
NUMBER_OF_FRAMES : 134397
NUMBER_OF_BYTES : 3262765999
_STATISTICS_WRITING_APP : mkvmerge v7.8.0 ('River Man') 32bit built on Mar 27 2015 16:18:02
_STATISTICS_WRITING_DATE_UTC : 2015-07-05 17:40:46
_STATISTICS_TAGS : BPS DURATION NUMBER_OF_FRAMES NUMBER_OF_BYTES
Audio #1
ID : 2
Format : AC-3
Format/Info : Audio Coding 3
Mode extension : CM (complete main)
Format settings, Endianness : Big
Codec ID : A_AC3
Duration : 1h 29mn
Bit rate mode : Constant
Bit rate : 192 Kbps
Channel(s) : 2 channels
Channel positions : Front: L R
Sampling rate : 48.0 KHz
Bit depth : 16 bits
Compression mode : Lossy
Stream size : 123 MiB (3%)
Title : Русский (Дубляж СССР)
Language : Russian
Default : Yes
Forced : No
Audio #2
ID : 3
Format : AC-3
Format/Info : Audio Coding 3
Mode extension : CM (complete main)
Format settings, Endianness : Big
Codec ID : A_AC3
Duration : 1h 29mn
Bit rate mode : Constant
Bit rate : 192 Kbps
Channel(s) : 2 channels
Channel positions : Front: L R
Sampling rate : 48.0 KHz
Bit depth : 16 bits
Compression mode : Lossy
Stream size : 123 MiB (3%)
Title : Русский ПМ
Language : Russian
Default : No
Forced : No
Audio #3
ID : 4
Format : AC-3
Format/Info : Audio Coding 3
Mode extension : CM (complete main)
Format settings, Endianness : Big
Codec ID : A_AC3
Duration : 1h 29mn
Bit rate mode : Constant
Bit rate : 384 Kbps
Channel(s) : 2 channels
Channel positions : Front: L R
Sampling rate : 48.0 KHz
Bit depth : 16 bits
Compression mode : Lossy
Stream size : 246 MiB (7%)
Language : German
Default : No
Forced : No
Text
ID : 5
Format : UTF-8
Codec ID : S_TEXT/UTF8
Codec ID/Info : UTF-8 Plain Text
Language : English
Default : No
Forced : No
Menu
00:00:00.000 : :Chapter 01
00:02:28.200 : :Chapter 02
00:14:01.060 : :Chapter 03
00:26:11.240 : :Chapter 04
00:38:28.880 : :Chapter 05
00:47:24.200 : :Chapter 06
00:58:48.320 : :Chapter 07
01:13:09.840 : :Chapter 08

Скриншоты


_________________
Показать сообщения:    

Текущее время: Сегодня 15:59

Часовой пояс: GMT



Вы не можете начинать темы
Вы не можете отвечать на сообщения
Вы не можете редактировать свои сообщения
Вы не можете удалять свои сообщения
Вы не можете голосовать в опросах
Вы не можете прикреплять файлы к сообщениям
Вы не можете скачивать файлы