Важное объявление!
У Нас Все раздачи мультитрекерные, при нуле пиров в релизах, можете смело вставать на закачку!
 
Автор Сообщение

HUNTER

Стаж:
4 года 4 месяца
Сообщений:
56790

Репутация: 101

[+] [-]
Вне форума [Профиль] [ЛС]

Бездельник / Julayi-
  • Год выпуска: 2012
  • Страна: Индия
  • Жанр: боевик, комедия
  • Продолжительность: 02:32:11
  • Перевод: Любительский (одноголосый закадровый)[zamez]
-
  • Режиссер: Тривикрам Шринивас
  • Сценарий: Тривикрам Шринивас
  • Продюсер: Д.В.В. Данайя, С. Радха Кришна, Рави Сурнедди
  • Оператор: Шийам К. Найду, Чота К. Найду
  • Композитор: Деви Шри Прасад
  • Художник: Равиндра
  • Монтаж: Правин Пуди
- -
  • Описание: Рави — бездельник, живет в Визаге и верит в то, что деньги можно быстро зарабатывать, нужно-то всего лишь поймать удачу. Однажды Рави даже бросил вызов отцу: он сделает из десяти тысяч рупий сто за какие-то два часа. И направился делать ставки на крикетный матч. Но в тот вечер не он один жаждал разбогатеть нахаляву. Матерый бандит Битту вместе с группой подельников отправился грабить банк. И ведь ограбил. И скрылся бы с награбленным, если бы незадолго до этого случайно не столкнулся с Рави. Лишившись денег, Битту рвет и мечет. Чтобы спасти ценного свидетеля, комиссар Визага прячет Рави в Хайдарабаде у своего давнего друга комиссара Ситарама. А у Ситарама не только в доме беспорядок, но и в голове.
-
  • Рейтинг:
-
  • Качество: HDRip
  • Формат: AVI
  • Видео кодек: XviD
  • Аудио кодеk: MP3
  • Видео: 720x304 (2.35:1), 24.000 fps, XviD, 1 731 Kbps
  • Аудио: Аудио #1: MP3, 192 Kbps, 44.1 KHz, 2 ch
-

МедиаИнфо

Код: copyText_writeLink('this.parentNode.parentNode.nextSibling.nextSibling'); General
Complete name : Bezdelnik.2012.HDRip.avi
Format : AVI
Format/Info : Audio Video Interleave
Format profile : OpenDML
File size : 2.06 GiB
Duration : 2h 32mn
Overall bit rate : 1 935 Kbps
Movie name : Bezdelnik.2012.HDRip.Uniongang.tv
Writing application : VirtualDubMod 1.5.10.3 | www.virtualdub-fr.org || (build 2550/release)
Copyright : http://www.uniongang.tv/
Video
ID : 0
Format : MPEG-4 Visual
Format profile : Advanced Simple@L5
Format settings, BVOP : Yes
Format settings, QPel : No
Format settings, GMC : No warppoints
Format settings, Matrix : Custom
Codec ID : XVID
Codec ID/Hint : XviD
Duration : 2h 32mn
Bit rate : 1 731 Kbps
Width : 720 pixels
Height : 304 pixels
Display aspect ratio : 2.35:1
Frame rate : 24.000 fps
Color space : YUV
Chroma subsampling : 4:2:0
Bit depth : 8 bits
Scan type : Progressive
Bits/(Pixel*Frame) : 0.329
Stream size : 1.84 GiB (89%)
Writing library : XviD 64
Audio
ID : 1
Format : MPEG Audio
Format version : Version 1
Format profile : Layer 3
Codec ID : 55
Codec ID/Hint : MP3
Duration : 2h 32mn
Bit rate mode : Constant
Bit rate : 192 Kbps
Channel(s) : 2 channels
Sampling rate : 44.1 KHz
Stream size : 209 MiB (10%)
Alignment : Split accross interleaves
Interleave, duration : 42 ms (1.00 video frame)
Interleave, preload duration : 500 ms
Writing library : LAME3.99
Encoding settings : -m s -V 4 -q 2 -lowpass 18.6 -b 192
-
-© Оформление by Boika- -Не уходите с раздачи, помогайте раздавать! Скачал сам, помоги скачать другим раздавая скачанное. Помните, что файлы раздачи размещены у других пользователей, таких же качающих или уже скачавших как и Вы, поэтому если кто-то удалит файлы и торрент-файл из клиента, то велика возможность того, что материалов раздачи не останется ни у кого и другие, такие же участники сети не смогут их скачать. Давайте начинать перемены с себя.-

_________________
Показать сообщения:    

Текущее время: Сегодня 11:49

Часовой пояс: GMT



Вы не можете начинать темы
Вы не можете отвечать на сообщения
Вы не можете редактировать свои сообщения
Вы не можете удалять свои сообщения
Вы не можете голосовать в опросах
Вы не можете прикреплять файлы к сообщениям
Вы не можете скачивать файлы