Важное объявление!
У Нас Все раздачи мультитрекерные, при нуле пиров в релизах, можете смело вставать на закачку!
 
Автор Сообщение

HUNTER

Стаж:
4 года 4 месяца
Сообщений:
56722

Репутация: 101

[+] [-]
Вне форума [Профиль] [ЛС]

Безграничный Бэтмен: Животные инстинкты
Batman Unlimited: Animal Instincts
Год выпуска: 2015
Страна: США
Жанр: мультфильм, фэнтези
Продолжительность: 01:17:22
Перевод: Профессиональный (Многоголосый закадровый)
русские субтитры: нет-Режиссёр: Батч Лукич : Butch Lukic-Роли озвучивали: Уилл Фридел, Лора Бэйли, Крис Диамантополос, Роджер Крэйг Смит, Дэна Снайдер, Юрий Ловенталь, Кит Шарабайка-Описание: Однажды вечером, патрулируя город, Бэтмен замечает на терртории лаборатории обездвиженные тела роботов-охранников и немедленно приземляется. Оказыватся, стальной волк с горящими красным светом глазами лишил обесточил их, а теперь планирует похитить главный объект лаборатории. Бэтмену удается предотвратить кражу, но остановить волка непросто – начинается ожесточенная погоня. Тем временем Найтвинг обнаруживает пробравшуюся в крупнейший ювелирный магазин Гепарду и вступает с ней в поединок. Гепарда не одна – вместе с ней прямоходящий крокодил Крок. На помощь Найтвингу приходит Флэш. Герои понимают, что дело серьезно, и одной кражей дело не ограничится. Вместе Бэтмен, Красный Робин, Найтвинг, Флэш и Зеленая Стрела должны остановить преступников – Крока, Пингвина, Гепарду и Гориллу.- релиз: -- Работа с BDRemux'ом и звуком -Azureus--Качество: BDRemux 1080p
Формат: MKV
Видео кодек: AVC
Аудио кодек: AC3 : DTS MA
Видео: 1920x1080 , 23,976 fps, ~21,2 Мbps avg, 0.427 bit/pixel
Аудио #1: [RUS] 48 kHz, AC3 Dolby Digital, 2/0 (L,R) ch, ~192 kbps
Аудио #2: [ENG] DTS-HD MA 5.1 / 48 kHz / 3735 kbps / 24-bit (DTS Core: 5.1 / 48 kHz / 1509 kbps / 24-bit)
субтитры: английские
навигация по главам: 9 глав (не именных)

MediaInfo

Общее
Уникальный идентификатор : 225722846945631125211403649876294064731 (0xA9D0A395EDF47751B1E2C70CECAF5A5B)
Полное имя : D:\Im\Batman Unlimited Animal Instincts\Batman Unlimited Animal Instincts.2015.BDRemux 1080p.mkv
Формат : Matroska
Версия формата : Version 4 / Version 2
Размер файла : 12,7 Гбайт
Продолжительность : 1 ч. 17 м.
Режим общего битрейта : Переменный
Общий поток : 23,5 Мбит/сек
Название фильма : Batman Unlimited: Animal Instincts.2015.BDRemux 1080p -Azureus-
Дата кодирования : UTC 2015-05-07 05:29:46
Программа кодирования : mkvmerge v7.8.0 ('River Man') 32bit built on Mar 27 2015 16:18:02
Библиотека кодирования : libebml v1.3.1 + libmatroska v1.4.2
DURATION : 01:16:53.233000000
NUMBER_OF_FRAMES : 746
NUMBER_OF_BYTES : 28025
_STATISTICS_WRITING_APP : mkvmerge v7.8.0 ('River Man') 32bit built on Mar 27 2015 16:18:02
_STATISTICS_WRITING_DATE_UTC : 2015-05-07 05:29:46
_STATISTICS_TAGS : BPS DURATION NUMBER_OF_FRAMES NUMBER_OF_BYTES
Видео
Идентификатор : 1
Формат : AVC
Формат/Информация : Advanced Video Codec
Профиль формата : High@L4.1
Параметр CABAC формата : Да
Параметр ReFrames формата : 2 кадра
Идентификатор кодека : V_MPEG4/ISO/AVC
Продолжительность : 1 ч. 17 м.
Вид битрейта : Переменный
Битрейт : 21,2 Мбит/сек
Ширина : 1920 пикселей
Высота : 1080 пикселей
Соотношение сторон : 16:9
Частота кадров : 23,976 кадра/сек
Цветовое пространство : YUV
Субдискретизация насыщенности : 4:2:0
Битовая глубина : 8 бит
Тип развёртки : Прогрессивная
Бит/(Пиксели*Кадры) : 0.427
Размер потока : 11,5 Гбайт (91%)
Язык : English
Default : Да
Forced : Нет
DURATION : 01:17:21.512000000
NUMBER_OF_FRAMES : 111285
NUMBER_OF_BYTES : 11336064600
_STATISTICS_WRITING_APP : mkvmerge v7.8.0 ('River Man') 32bit built on Mar 27 2015 16:18:02
_STATISTICS_WRITING_DATE_UTC : 2015-05-07 05:29:46
_STATISTICS_TAGS : BPS DURATION NUMBER_OF_FRAMES NUMBER_OF_BYTES
Аудио #1
Идентификатор : 2
Формат : AC-3
Формат/Информация : Audio Coding 3
Расширение режима : CM (complete main)
Идентификатор кодека : A_AC3
Продолжительность : 1 ч. 17 м.
Вид битрейта : Постоянный
Битрейт : 192 Кбит/сек
Каналы : 2 канала
Расположение каналов : Front: L R
Частота : 48,0 КГц
Битовая глубина : 16 бит
Метод сжатия : С потерями
Размер потока : 106 Мбайт (1%)
Заголовок : MVO
Язык : Russian
Default : Да
Forced : Нет
DURATION : 01:17:22.475000000
NUMBER_OF_FRAMES : 435232
NUMBER_OF_BYTES : 2166740152
_STATISTICS_WRITING_APP : mkvmerge v7.8.0 ('River Man') 32bit built on Mar 27 2015 16:18:02
_STATISTICS_WRITING_DATE_UTC : 2015-05-07 05:29:46
_STATISTICS_TAGS : BPS DURATION NUMBER_OF_FRAMES NUMBER_OF_BYTES
Аудио #2
Идентификатор : 3
Формат : DTS
Формат/Информация : Digital Theater Systems
Профиль формата : MA / Core
Идентификатор кодека : A_DTS
Продолжительность : 1 ч. 17 м.
Вид битрейта : Переменный
Битрейт : 1561 Кбит/сек / 1510 Кбит/сек
Каналы : 6 каналов
Расположение каналов : Front: L C R, Side: L R, LFE
Частота : 48,0 КГц
Битовая глубина : 24 бит
Метод сжатия : Без потерь / Lossy
Заголовок : ENG
Язык : English
Default : Нет
Forced : Нет
Текст
Идентификатор : 4
Формат : UTF-8
Идентификатор кодека : S_TEXT/UTF8
Идентификатор кодека/Информация : UTF-8 Plain Text
Заголовок : Eng Sub
Язык : English
Default : Нет
Forced : Нет
Меню
00:00:00.000 : en:Chapter 01
00:10:35.801 : en:Chapter 02
00:21:05.013 : en:Chapter 03
00:29:05.744 : en:Chapter 04
00:42:19.578 : en:Chapter 05
00:50:51.673 : en:Chapter 06
01:00:26.497 : en:Chapter 07
01:09:28.164 : en:Chapter 08
01:14:47.900 : en:Chapter 09
____________________________________________
Стою на раздаче до 5 дней.
Просьба скачавшим как можно дольше не покидать раздачу!
ВСЕМ ПРИЯТНОГО ПРОСМОТРА!_________________________________________

_________________
Показать сообщения:    

Текущее время: Сегодня 11:14

Часовой пояс: GMT



Вы не можете начинать темы
Вы не можете отвечать на сообщения
Вы не можете редактировать свои сообщения
Вы не можете удалять свои сообщения
Вы не можете голосовать в опросах
Вы не можете прикреплять файлы к сообщениям
Вы не можете скачивать файлы