Важное объявление!
У Нас Все раздачи мультитрекерные, при нуле пиров в релизах, можете смело вставать на закачку!
 
Автор Сообщение

HUNTER

Стаж:
4 года 4 месяца
Сообщений:
56839

Репутация: 101

[+] [-]
Вне форума [Профиль] [ЛС]

Безбилетники на Ноевом Ковчеге / In der Arche ist der Wurm drin / Stowaways On The Ark
Страна: ФРГ
Жанр: мультфильм, приключения, исторический
Продолжительность: 01:18:11
Год выпуска: 1988
Перевод: Профессиональный (многоголосый закадровый)
Русские субтитры: нет

Режиссёр: Wolfgang Urchs / Вольфганг Урхс
Описание: Вы никогда не задумывались, почему от Ноева Ковчега не осталось даже истлевших обломков? И маленьким и взрослым наверняка будет любопытно взглянуть на историю мира глазами… древесных червей.
Да, именно они плыли на Ковчеге без билета. Из-за них и рассыпались в прах реликвия — корабль, построенный нашим общим прапрадедушкой Ноем. Древесные черви должны отстоять свое доброе имя. Пусть они не совладали с аппетитом.
Но если Ковчег едва не пошел ко дну, это дело не их рук… простите, зубов. Ведь на корабле были и другие безбилетники, куда более опасные …


Качество: [url=viewtopic.php?t=4507710]DVDRip[/url]
Формат: AVI
Видео: 624x480 (1.30:1), 25 fps, XviD build 73 ~2269 kbps avg, 0.30 bit/pixel
Аудио: 48 kHz, AC3 Dolby Digital, 2/0 (L,R) ch, ~192 kbps - многоголосый
Аудио: 48 kHz, AC3 Dolby Digital, 2/0 (L,R) ch, ~192 kbps - оригинал
Субтитры: отсутствуют

Сравнение

[url=viewtopic.php?t=2778644]http://rutracker.org/forum/viewtopic.php?t=2778644[/url] - первоисточник звука
http://screenshotcomparison.com/comparison/165715

Подробные технические данные

ОбщееПолное имя : H:\In.der.Arche.ist.der.Wurm.drin.1988.dvdrip_[1.46]_[teko].aviФормат : AVIФормат/Информация : Audio Video InterleaveРазмер файла : 1,46 ГбайтПродолжительность : 1 ч. 18 м.Общий поток : 2668 Кбит/секПрограмма кодирования : VirtualDubMod 1.5.10.3 | www.virtualdub-fr.org || (build 2550/release)Библиотека кодирования : VirtualDubMod build 2550/release
ВидеоИдентификатор : 0Формат : MPEG-4 VisualПрофиль формата : Advanced Simple@L5Параметр BVOP формата : 2Параметр QPel формата : НетПараметр GMC формата : Без точки переходаПараметр матрицы формата : ВыборочнаяИдентификатор кодека : XVIDИдентификатор кодека/Подсказка : XviDПродолжительность : 1 ч. 18 м.Битрейт : 2270 Кбит/секШирина : 624 пикселяВысота : 480 пикселейСоотношение сторон : 4:3Частота кадров : 25,000 кадров/секЦветовое пространство : YUVСубдискретизация насыщенности : 4:2:0Битовая глубина : 8 битТип развёртки : ПрогрессивнаяМетод сжатия : С потерямиБит/(Пиксели*Кадры) : 0.303Размер потока : 1,24 Гбайт (85%)Библиотека кодирования : XviD 73
Аудио #1Идентификатор : 1Формат : AC-3Формат/Информация : Audio Coding 3Расширение режима : CM (complete main)Параметр Endianness формата : BigИдентификатор кодека : 2000Продолжительность : 1 ч. 17 м.Вид битрейта : ПостоянныйБитрейт : 192 Кбит/секКаналы : 2 каналаРасположение каналов : Front: L RЧастота : 48,0 КГцБитовая глубина : 16 битМетод сжатия : С потерямиРазмер потока : 107 Мбайт (7%)Выравнивание : Разделение по промежуткамПродолжительность промежутка : 40 мс. (1,00 видеокадр)Время предзагрузки промежутка : 500 мс.
Аудио #2Идентификатор : 2Формат : AC-3Формат/Информация : Audio Coding 3Расширение режима : CM (complete main)Параметр Endianness формата : BigИдентификатор кодека : 2000Продолжительность : 1 ч. 18 м.Вид битрейта : ПостоянныйБитрейт : 192 Кбит/секКаналы : 2 каналаРасположение каналов : Front: L RЧастота : 48,0 КГцБитовая глубина : 16 битМетод сжатия : С потерямиРазмер потока : 107 Мбайт (7%)Выравнивание : Разделение по промежуткамПродолжительность промежутка : 40 мс. (1,00 видеокадр)Время предзагрузки промежутка : 500 мс.
Релиз группы:
[url=viewtopic.php?t=1677970] [/url]
--

_________________
Показать сообщения:    

Текущее время: Сегодня 23:09

Часовой пояс: GMT



Вы не можете начинать темы
Вы не можете отвечать на сообщения
Вы не можете редактировать свои сообщения
Вы не можете удалять свои сообщения
Вы не можете голосовать в опросах
Вы не можете прикреплять файлы к сообщениям
Вы не можете скачивать файлы