Важное объявление!
У Нас Все раздачи мультитрекерные, при нуле пиров в релизах, можете смело вставать на закачку!
 
Автор Сообщение

димитри37

Стаж:
3 года 8 месяцев
Сообщений:
1237

Репутация: 127

[+] [-]
Вне форума [Профиль] [ЛС]

Без страха и упрёка
Жанр: комедия
Год выпуска: 1962
Продолжительность: 01:20:04
Режиссёр: Александр Митта
В ролях: Алла Витрук, Витя Глазков, Коля Бурляев, Савелий Крамаров, Николай Волков старший, Лев Золотухин, Марианна Стриженова, Клавдия Шинкина, Людмила Марченко, Анатолий Юшко, Елена Максимова, Коля Кодин, Владимир Лебедев, Эммануил Геллер, Елена Кононенко, Николай Парфёнов, Кларина Фролова-Воронцова, Юрий Никулин, Михаил Шуйдин, Лидия Королёва, Валентина Ананьина, Павел Винник, Елена Вольская, Валентина Леонтьева, Илья Рутберг, Виктор Уральский, Вера Бурлакова, Василий Бокарев, Владимир Липпарт, Леонид Пирогов, Владимир Пицек, Пётр Репнин, Анатолий Сахновский
Описание: СССР, 1960-е годы. Молодой участник геологоразведочной экспедиции Репнин, командированный в Москву, получил в сберкассе крупную сумму денег - 600 рублей - и должен был, оплатив самолет и отгрузив оборудование, сразу же выехать в Заусолье, где его ждала экспедиция. Но в московской сутолоке Репнин потерял деньги. Их нашли подростки, живущие в одном дворе, - Вадик, Юра и Тоша. Друзья, понимая, что потеря такой суммы - это весьма серьезное и неприятное происшествие, решили найти пострадавшего и вернуть ему пропажу. Ключом к поискам стала программка с ипподрома, в которую были завернуты деньги...
Сценарий: Семён Лунгин, Илья Нусинов
Оператор: Герман Шатров
Художник: Виталий Гладников
Композитор: Никита Богословский
Ограничения на просмотр: детям до 12 лет просмотр фильма разрешен в сопровождении родителей

Качество видео: DVDRip
Формат видео: AVI
Видео: 688x528 (1.30:1), 25 fps, XviD 1.2.1, 2400 kbps avg, 0.26 bit/pixel
Аудио: 48 kHz, AC3 Dolby Digital, 2/0 (L,R) ch, 192 kbps

Афиши

MediaInfo

Полное имя : Bez straha i upreka.avi
Формат : AVI
Формат/Информация : Audio Video Interleave
Размер файла : 1,45 Гбайт
Продолжительность : 1 ч. 20 м.
Общий поток : 2601 Кбит/сек
Программа кодирования : VirtualDubMod 1.5.10.3 (build 2550/release)
Библиотека кодирования : VirtualDubMod build 2550/release
Видео
Идентификатор : 0
Формат : MPEG-4 Visual
Профиль формата : Advanced Simple@L5
Параметр BVOP формата : 2
Параметр QPel формата : Нет
Параметр GMC формата : Без точки перехода
Параметр матрицы формата : Выборочная
Идентификатор кодека : XVID
Идентификатор кодека/Подсказка : XviD
Продолжительность : 1 ч. 20 м.
Битрейт : 2400 Кбит/сек
Ширина : 688 пикселей
Высота : 528 пикселей
Соотношение сторон : 4:3
Частота кадров : 25,000 кадров/сек
Цветовое пространство : YUV
Субдискретизация насыщенности : 4:2:0
Битовая глубина : 8 бит
Тип развёртки : Прогрессивная
Метод сжатия : С потерями
Бит/(Пиксели*Кадры) : 0.264
Размер потока : 1,34 Гбайт (92%)
Библиотека кодирования : XviD 1.2.1 (UTC 2008-12-04)
Аудио
Идентификатор : 1
Формат : AC-3
Формат/Информация : Audio Coding 3
Расширение режима : CM (complete main)
Параметр Endianness формата : Big
Идентификатор кодека : 2000
Продолжительность : 1 ч. 20 м.
Вид битрейта : Постоянный
Битрейт : 192 Кбит/сек
Каналы : 2 канала
Расположение каналов : Front: L R
Частота : 48,0 КГц
Битовая глубина : 16 бит
Метод сжатия : С потерями
Размер потока : 110 Мбайт (7%)
Выравнивание : Разделение по промежуткам
Продолжительность промежутка : 40 мс. (1,00 видеокадр)
Время предзагрузки промежутка : 500 мс.

Сравнение

http://rutracker.org/forum/viewtopic.php?t=1861111 - с конкурентом
http://screenshotcomparison.com/comparison/23465/ - цветокоррекция, чрезмерная фильтрация, матрица Defolt (H.263), звук МР3
http://rutracker.org/forum/viewtopic.php?t=1849348 - с исходником
http://screenshotcomparison.com/comparison/23467/ - конкурент
http://screenshotcomparison.com/comparison/23469/ - данный рип

Подтверждение правильности выбранного AR

-
Показать сообщения:    

Текущее время: Сегодня 20:41

Часовой пояс: GMT



Вы не можете начинать темы
Вы не можете отвечать на сообщения
Вы не можете редактировать свои сообщения
Вы не можете удалять свои сообщения
Вы не можете голосовать в опросах
Вы не можете прикреплять файлы к сообщениям
Вы не можете скачивать файлы