Важное объявление!
У Нас Все раздачи мультитрекерные, при нуле пиров в релизах, можете смело вставать на закачку!
 
Автор Сообщение

HUNTER

Стаж:
4 года 4 месяца
Сообщений:
56783

Репутация: 101

[+] [-]
Вне форума [Профиль] [ЛС]

Без срока давности. Дело лейтенанта Рудзянко
Год выпуска: 2012
Страна: Россия
Жанр: Документальный
Продолжительность: 00:38:46
Перевод: Не требуется
Режиссер: Денис Мищук
Описание: Сколько стоит человеческая жизнь? Казалось, на той войне она не стоила и понюшки табаку. Но бывший лейтенант Красной Армии Борис Рудзянко имел на жизни советских людей твердые расценки в немецких марках. Агент Абвера и провокатор. В оккупированном Минске он продавал жизни патриотов – подпольщиков, партизан, связных, всех, за кого можно было получить вознаграждение. И был он ловким агентом… с фантазией, со смекалкой. Но вот уйти на запад со своими шефами не успел. После оккупации он тоже почти избежал возмездия – 7 лет, как бывшему пленному. Оставался год, когда его дело вновь было пересмотрено. Уже через несколько недель оно распухло, начало сшиваться в тома, и вскоре стало ясно и без суда – лишить этого человека жизни мало, но это единственное, что позволяет закон. Со временем многие подпольщики, которых он предал, были посмертно награждены, его же фамилия для следователей стала нарицательной: «Сколько еще таких Рудзянок скрывается среди нас?..» На этих делах так и остался стоять гриф «Без срока давности».
Качество: SATRip
Формат: AVI
Видео: DivX, 704x528, (1.33:1), 1497 kbps avg, 25 fps, 0.16 bit/pixel
Аудио: 48 kHz, MPEG Layer 3, 2 ch, ~128.00 kbps avg

MediaInfo

General
Complete name : C:\Users\Acer\Desktop\раздача\Без срока давности. Дело лейтенанта Рудзянко.2012.SATRip.avi
Format : AVI
Format/Info : Audio Video Interleave
File size : 453 MiB
Duration : 38mn 46s
Overall bit rate : 1 634 Kbps
Writing application : VirtualDubMod 1.5.10.3 | www.virtualdub-fr.org || (build 2550/release)
Writing library : VirtualDubMod build 2550/release
Video
ID : 0
Format : MPEG-4 Visual
Format profile : Advanced Simple@L5
Format settings, BVOP : 2
Format settings, QPel : No
Format settings, GMC : No warppoints
Format settings, Matrix : Default (MPEG)
Codec ID : DX50
Codec ID/Hint : DivX 5
Duration : 38mn 46s
Bit rate : 1 497 Kbps
Width : 704 pixels
Height : 528 pixels
Display aspect ratio : 4:3
Frame rate : 25.000 fps
Color space : YUV
Chroma subsampling : 4:2:0
Bit depth : 8 bits
Scan type : Progressive
Compression mode : Lossy
Bits/(Pixel*Frame) : 0.161
Stream size : 415 MiB (92%)
Writing library : XviD 1.2.1 (UTC 2008-12-04)
Audio
ID : 1
Format : MPEG Audio
Format version : Version 1
Format profile : Layer 3
Codec ID : 55
Codec ID/Hint : MP3
Duration : 38mn 46s
Bit rate mode : Constant
Bit rate : 128 Kbps
Channel(s) : 2 channels
Sampling rate : 48.0 KHz
Compression mode : Lossy
Stream size : 35.5 MiB (8%)
Alignment : Aligned on interleaves
Interleave, duration : 40 ms (1.00 video frame)
Interleave, preload duration : 504 ms
Writing library : LAME3.99r
Encoding settings : -m s -V 4 -q 2 -lowpass 17 -b 128

Скриншоты


_________________
Показать сообщения:    

Текущее время: Сегодня 22:23

Часовой пояс: GMT



Вы не можете начинать темы
Вы не можете отвечать на сообщения
Вы не можете редактировать свои сообщения
Вы не можете удалять свои сообщения
Вы не можете голосовать в опросах
Вы не можете прикреплять файлы к сообщениям
Вы не можете скачивать файлы