Важное объявление!
У Нас Все раздачи мультитрекерные, при нуле пиров в релизах, можете смело вставать на закачку!
 
Автор Сообщение

HUNTER

Стаж:
4 года 4 месяца
Сообщений:
56720

Репутация: 101

[+] [-]
Вне форума [Профиль] [ЛС]

Без границ
Страна: Россия
Студия: кинокомпания "Небо"
Жанр: комедия, мелодрама
Год выпуска: 2015
Продолжительность: 01:36:02
Перевод: Не требуется
Cубтитры: нет
Оригинальная аудиодорожка: русский
Режиссер: Карен Оганесян, Резо Гигинеишвили, Роман Прыгунов
В ролях: Инна Чурикова, Олег Басилашвили, Александр Адабашьян, Анна Чиповская, Иван Янковский, Александр Паль, Милош Бикович, Мария Шалаева, Равшана Куркова, Наталия Вдовина
Описание: События картины начинаются в московском аэропорту, откуда главные герои отправляются в захватывающие путешествия к живописным горным долинам Армении, утопающим в зелени улочкам Тбилиси и праздничным огням новогодней Москвы навстречу любви — яркой и страстной, наивной и нелепой, трогательной и грустной, счастливой и безрассудной, которая не знает границ и условностей, возраста и национальностей.

Sample
Тип релиза: WEB-DL 720p
Контейнер: MKV
Видео: MPEG4 AVC Video, H264, 16:9, 1280x536, 24 fps, 3900 kbps
Аудио: Russian (AC3, 6 ch, 384 kbps, 16 bits, 48.0 KHz) - оригинал

MediaInfo

General
Unique ID : 246581867828444146259070916378890501501 (0xB981F0B775B2230E90E44D37D1F27D7D)
Complete name : L:\Без границ 2015 WEB-DL 720p.mkv
Format : Matroska
Format version : Version 4 / Version 2
File size : 2.93 GiB
Duration : 1h 36mn
Overall bit rate : 4 371 Kbps
Encoded date : UTC 2015-11-25 19:13:37
Writing application : mkvmerge v8.3.0 ('Over the Horizon') 64bit
Writing library : libebml v1.3.1 + libmatroska v1.4.2
DURATION : 01:36:02.816000000
NUMBER_OF_FRAMES : 180088
NUMBER_OF_BYTES : 276615168
_STATISTICS_WRITING_APP : mkvmerge v8.3.0 ('Over the Horizon') 64bit
_STATISTICS_WRITING_DATE_UTC : 2015-11-25 19:13:37
_STATISTICS_TAGS : BPS DURATION NUMBER_OF_FRAMES NUMBER_OF_BYTES
Video
ID : 1
Format : AVC
Format/Info : Advanced Video Codec
Format profile : Main@L3.1
Format settings, CABAC : No
Format settings, ReFrames : 2 frames
Codec ID : V_MPEG4/ISO/AVC
Duration : 1h 36mn
Bit rate : 3 900 Kbps
Width : 1 280 pixels
Height : 536 pixels
Display aspect ratio : 2.40:1
Frame rate mode : Constant
Frame rate : 24.000 fps
Color space : YUV
Chroma subsampling : 4:2:0
Bit depth : 8 bits
Scan type : Progressive
Bits/(Pixel*Frame) : 0.237
Stream size : 2.62 GiB (89%)
Language : English
Default : Yes
Forced : No
Color primaries : BT.709
Transfer characteristics : BT.709
Matrix coefficients : BT.709
Audio
ID : 2
Format : AC-3
Format/Info : Audio Coding 3
Mode extension : CM (complete main)
Format settings, Endianness : Big
Codec ID : A_AC3
Duration : 1h 36mn
Bit rate mode : Constant
Bit rate : 384 Kbps
Channel count : 6 channels
Channel positions : Front: L C R, Side: L R, LFE
Sampling rate : 48.0 KHz
Bit depth : 16 bits
Compression mode : Lossy
Stream size : 264 MiB (9%)
Language : Russian
Default : Yes
Forced : No
Menu
00:00:00.000 : en:Глава 1
00:05:59.000 : en:Глава 2
00:12:41.000 : en:Глава 3
00:18:48.000 : en:Глава 4
00:23:53.000 : en:Глава 5
00:29:17.000 : en:Глава 6
00:35:01.000 : en:Глава 7
00:41:06.000 : en:Глава 8
00:46:10.000 : en:Глава 9
00:51:18.000 : en:Глава 10
00:57:24.000 : en:Глава 11
01:02:47.000 : en:Глава 12
01:08:02.000 : en:Глава 13
01:14:07.000 : en:Глава 14
01:19:23.000 : en:Глава 15
01:24:27.000 : en:Глава 16
01:30:25.000 : en:Глава 17

Скриншоты


_________________
Показать сообщения:    

Текущее время: Сегодня 07:46

Часовой пояс: GMT



Вы не можете начинать темы
Вы не можете отвечать на сообщения
Вы не можете редактировать свои сообщения
Вы не можете удалять свои сообщения
Вы не можете голосовать в опросах
Вы не можете прикреплять файлы к сообщениям
Вы не можете скачивать файлы