Важное объявление!
У Нас Все раздачи мультитрекерные, при нуле пиров в релизах, можете смело вставать на закачку!
 
Автор Сообщение

HUNTER

Стаж:
4 года 4 месяца
Сообщений:
56719

Репутация: 101

[+] [-]
Вне форума [Профиль] [ЛС]

Бедная Liz
Страна: Россия, Украина
Производство: Star Media distribution
Жанр: романтическая комедия
Год выпуска: 2013
Продолжительность: 01:34:43
Субтитры: нет
Режиссер: Алексей Лисовец
В ролях: Мария Машкова, Антон Пампушный, Ниёле Серёжникова, Александр Данильченко, Лина Будник, Дмитрий Лаленков, Екатерина Кистень, Николай Боклан
Описание: Сержант канадской полиции Джо Соколофф едет в далекую Россию выполнить последнюю просьбу своей любимой бабушки. Но с первых шагов на исторической родине все планы Джо рушатся — его грабят в поезде «милые соседи». Отстав от поезда, 30-летний любитель родео и кантри-музыки, глядящий на мир радостными широко открытыми глазами, оказывается в маленькой кубанской станице без денег и документов. Смешной чудак в белой ковбойской шляпе попадает в «странный мир странных русских». Тут топят новорожденных щенков, едят пойманную в реке рыбу, шлепают детей! Но всего несколько дней понадобилось Джо, чтобы понять этих людей, принять их всем сердцем и влюбиться в красавицу-казачку Лизу. Но есть ли будущее у этой любви?..

Автор рипа / записи: fanatus
Качество видео: HDTVRip 720p
Исходник: Запись с телеканала РОССИЯ HD
Контейнер: MKV
Видео: MPEG-4 AVC, 3788 kbps, 1280x720 (16:9), 25.000 fps, 0.164 bit/pixel
Аудио: AC3, 2 ch, 48 kHz, 192 kbps

MediaInfo

General
Unique ID : 246116900242572729730258310613154850167 (0xB928640B72DFB753AC362ADCA796E577)
Complete name : F:\Bednaja_Liz.2013.x264.HDTVRip.720p.fanatus.mkv
Format : Matroska
Format version : Version 2
File size : 2.63 GiB
Duration : 1h 34mn
Overall bit rate : 3 982 Kbps
Movie name : Bednaja Liz (2013) - fanatus
Encoded date : UTC 2014-04-01 14:38:54
Writing application : mkvmerge v3.4.0 ('Rapunzel') сборка от May 15 2010 09:38:20
Writing library : libebml v0.8.0 + libmatroska v0.9.0
Video
ID : 1
Format : AVC
Format/Info : Advanced Video Codec
Format profile : High@L4.1
Format settings, CABAC : Yes
Format settings, ReFrames : 8 frames
Codec ID : V_MPEG4/ISO/AVC
Duration : 1h 34mn
Bit rate : 3 788 Kbps
Width : 1 280 pixels
Height : 720 pixels
Display aspect ratio : 16:9
Frame rate : 25.000 fps
Color space : YUV
Chroma subsampling : 4:2:0
Bit depth : 8 bits
Scan type : Progressive
Bits/(Pixel*Frame) : 0.164
Stream size : 2.45 GiB (93%)
Title : Bednaja Liz (2013)
Writing library : x264 core 142 r2409 d6b4e63
Encoding settings : cabac=1 / ref=8 / deblock=1:-2:-2 / analyse=0x3:0x113 / me=umh / subme=10 / psy=1 / psy_rd=1.00:0.10 / mixed_ref=1 / me_range=32 / chroma_me=1 / trellis=2 / 8x8dct=1 / cqm=0 / deadzone=21,11 / fast_pskip=0 / chroma_qp_offset=-3 / threads=16 / lookahead_threads=2 / sliced_threads=0 / nr=0 / decimate=0 / interlaced=0 / bluray_compat=0 / constrained_intra=0 / bframes=9 / b_pyramid=2 / b_adapt=2 / b_bias=0 / direct=3 / weightb=1 / open_gop=0 / weightp=2 / keyint=250 / keyint_min=25 / scenecut=40 / intra_refresh=0 / rc=2pass / mbtree=0 / bitrate=3788 / ratetol=1.0 / qcomp=0.65 / qpmin=0 / qpmax=69 / qpstep=4 / cplxblur=20.0 / qblur=0.5 / ip_ratio=1.40 / pb_ratio=1.30 / aq=1:0.90
Language : Russian
Default : Yes
Forced : No
Audio
ID : 2
Format : AC-3
Format/Info : Audio Coding 3
Mode extension : CM (complete main)
Format settings, Endianness : Big
Codec ID : A_AC3
Duration : 1h 34mn
Bit rate mode : Constant
Bit rate : 192 Kbps
Channel(s) : 2 channels
Channel positions : Front: L R
Sampling rate : 48.0 KHz
Bit depth : 16 bits
Compression mode : Lossy
Stream size : 130 MiB (5%)
Language : Russian
Default : Yes
Forced : No

Скриншот c названием фильма

Скриншоты


_________________
Показать сообщения:    

Текущее время: Сегодня 23:57

Часовой пояс: GMT



Вы не можете начинать темы
Вы не можете отвечать на сообщения
Вы не можете редактировать свои сообщения
Вы не можете удалять свои сообщения
Вы не можете голосовать в опросах
Вы не можете прикреплять файлы к сообщениям
Вы не можете скачивать файлы