Важное объявление!
У Нас Все раздачи мультитрекерные, при нуле пиров в релизах, можете смело вставать на закачку!
 
Автор Сообщение

mihis

[Профиль] [ЛС]

Беглец / The Fugitive«Его жена убита. Некто однорукий. Одержимый полицейский. Погоня начинается...»
Год выпуска: 1993
Страна: США, Warner Bros. Pictures
Жанр: Боевик, триллер, криминал, детектив, приключения
Продолжительность: 02:10:15
Перевод: Профессиональный (полное дублирование) Мост-Видео, Варус Видео + Профессиональный (многоголосый,закадровый) НТВ+, TV1000, ОРТ + Авторский (одноголосый,закадровый) Гаврилов, Живов, Горчаков, Володарский, диктор CDV + Оригинал
Субтитры: Русские, английские
Режиссер: Эндрю Дэвис
В ролях: Харрисон Форд, Томми Ли Джонс, Джулианна Мур, Села Уорд, Джо Пантольяно, Йерун Краббе, Дэниэл Робак, Том Вуд, Л. Скотт Колдуэлл, Андреас Катсулас, Рон Дин, Мигель Нино, Джон Драммонд, Тони Фоско, Джозеф Ф. Фишер, Дэвид Дарлоу, Джеймс Ф. МакКинси, Джон Э. Эллис, Джин Барж, Томас Чарльз Симмонс, Дик Кьюсак, Николас Кусенко, Джоан Кон, Энди Романо, Ричард Риле, Том Вернон, Кен Морено, Эдди Бо Смит мл., Фрэнк Рэй Перилли, Отис Уилсон, Джим Уилки, Дэнни Голдринг, Ник Сирси, Кевин Краули, Майкл Джеймс, Майкл Скевес
Описание: Убитая жена. Однорукий мужчина. Одержимый детектив. Преследование начинается. Доктор Ричард Кимбл, чикагский хирург, ложно обвинен в убийстве своей жены. Полный решимости доказать свою невиновность, доктор совершает побег из тюрьмы. Он хочет сам привести своих преследователей — служителей закона — к настоящему убийце. Фильм снят по мотивам популярного американского телесериала 60-х годов.

Качество: BDRip-AVC
Формат: MKV
Видео кодек: H.264
Аудио кодек: AC3
Видео: AVC, 1024x576 (16:9), 23.976 fps, 3 110 Kbps (0.220 bit/pixel)
Аудио #1: AC-3, 48.0 KHz, 6 ch, 384 Kbps, Мост-Видео
Аудио #2: AC-3, 48.0 KHz, 2 ch, 192 Kbps, Варус Видео
Аудио #3: AC-3, 48.0 KHz, 2 ch, 192 Kbps, НТВ+
Аудио #4: AC-3, 48.0 KHz, 2 ch, 224 Kbps, TV1000
Аудио #5: AC-3, 48.0 KHz, 2 ch, 192 Kbps, ОРТ
Аудио #6: AC-3, 48.0 KHz, 6 ch, 448 Kbps, Гаврилов
Аудио #7: AC-3, 48.0 KHz, 6 ch, 448 Kbps, Живов
Аудио #8: AC-3, 48.0 KHz, 6 ch, 448 Kbps, Горчаков
Аудио #9: AC-3, 48.0 KHz, 2 ch, 128 Kbps, Володарский
Аудио #10: AC-3, 48.0 KHz, 2 ch, 192 Kbps, диктор CDV
Аудио #11: AC-3, 48.0 KHz, 6 ch, 448 Kbps, Eng

Награды

Оскар, 1994 год
Победитель (1):
Лучшая мужская роль второго плана (Томми Ли Джонс)
Номинации (6):
Лучший фильм
Лучшая работа оператора
Лучший звук
Лучший монтаж
Лучший монтаж звука
Лучший оригинальный саундтрек
Золотой глобус, 1994 год
Победитель (1):
Лучшая мужская роль второго плана (Томми Ли Джонс)
Номинации (2):
Лучшая мужская роль (драма) (Харрисон Форд)
Лучший режиссер (Эндрю Дэвис)
Премия канала «MTV», 1994 год
Победитель (2):
Лучший экранный дуэт (Харрисон Форд, Томми Ли Джонс)
Лучшая экшн-сцена
Номинации (2):
Лучший фильм
Лучшая мужская роль (Харрисон Форд)
Британская академия, 1994 год
Победитель (1):
Лучший звук
Номинации (3):
Лучшая мужская роль второго плана (Томми Ли Джонс)
Лучший монтаж
Лучшие визуальные эффекты

MediaInfo

Общее
Уникальный идентификатор : 208153256601170115752204876308136641963 (0x9C98DBE6D56772A1A649528CFB00C5AB)
Полное имя : D:\Video\Beglec.1993.x264.BDRip.(AVC).ExKinoRay.mkv
Формат : Matroska
Версия формата : Version 1
Размер файла : 5,83 Гбайт
Продолжительность : 2 ч. 10 м.
Общий поток : 6412 Кбит/сек
Дата кодирования : UTC 2012-11-27 10:50:09
Программа кодирования : mkvmerge v2.1.0 ('Another Place To Fall') built on Aug 19 2007 13:40:07
Библиотека кодирования : libebml v0.7.7 + libmatroska v0.8.1
Видео
Идентификатор : 1
Формат : AVC
Формат/Информация : Advanced Video Codec
Профиль формата : High@L4.1
Параметр CABAC формата : Да
Параметр ReFrames формата : 8 кадров
Идентификатор кодека : V_MPEG4/ISO/AVC
Продолжительность : 2 ч. 10 м.
Битрейт : 3110 Кбит/сек
Ширина : 1024 пикселя
Высота : 576 пикселей
Соотношение сторон : 16:9
Режим частоты кадров : Постоянный
Частота кадров : 23,976 кадра/сек
Цветовое пространство : YUV
Субдискретизация насыщенности : 4:2:0
Битовая глубина : 8 бит
Тип развёртки : Прогрессивная
Бит/(Пиксели*Кадры) : 0.220
Размер потока : 2,72 Гбайт (47%)
Библиотека кодирования : x264 core 115 r1937 aa21558
Настройки программы : cabac=1 / ref=8 / deblock=1:-2:-2 / analyse=0x3:0x113 / me=umh / subme=8 / psy=1 / psy_rd=1.00:0.10 / mixed_ref=0 / me_range=32 / chroma_me=1 / trellis=2 / 8x8dct=1 / cqm=0 / deadzone=21,11 / fast_pskip=1 / chroma_qp_offset=-3 / threads=6 / sliced_threads=0 / nr=0 / decimate=1 / interlaced=0 / bluray_compat=0 / constrained_intra=0 / bframes=8 / b_pyramid=2 / b_adapt=2 / b_bias=0 / direct=3 / weightb=1 / open_gop=0 / weightp=0 / keyint=250 / keyint_min=23 / scenecut=40 / intra_refresh=0 / rc_lookahead=30 / rc=2pass / mbtree=1 / bitrate=3110 / ratetol=1.0 / qcomp=0.60 / qpmin=15 / qpmax=47 / qpstep=3 / cplxblur=20.0 / qblur=0.5 / ip_ratio=1.40 / aq=1:1.10
Язык : English
Default : Да
Forced : Нет
Аудио #1
Идентификатор : 2
Формат : AC-3
Формат/Информация : Audio Coding 3
Расширение режима : CM (complete main)
Параметр Endianness формата : Big
Идентификатор кодека : A_AC3
Продолжительность : 2 ч. 10 м.
Вид битрейта : Постоянный
Битрейт : 384 Кбит/сек
Каналы : 6 каналов
Расположение каналов : Front: L C R, Side: L R, LFE
Частота : 48,0 КГц
Битовая глубина : 16 бит
Метод сжатия : С потерями
Размер потока : 358 Мбайт (6%)
Заголовок : Дублированный (Мост-Видео)
Язык : Russian
Default : Да
Forced : Нет
Аудио #2
Идентификатор : 3
Формат : AC-3
Формат/Информация : Audio Coding 3
Расширение режима : CM (complete main)
Параметр Endianness формата : Big
Идентификатор кодека : A_AC3
Продолжительность : 2 ч. 10 м.
Вид битрейта : Постоянный
Битрейт : 192 Кбит/сек
Каналы : 2 канала
Расположение каналов : Front: L R
Частота : 48,0 КГц
Битовая глубина : 16 бит
Метод сжатия : С потерями
Размер потока : 179 Мбайт (3%)
Заголовок : Дублированный (Варус Видео)
Язык : Russian
Default : Нет
Forced : Нет
Аудио #3
Идентификатор : 4
Формат : AC-3
Формат/Информация : Audio Coding 3
Расширение режима : CM (complete main)
Параметр Endianness формата : Big
Идентификатор кодека : A_AC3
Продолжительность : 2 ч. 10 м.
Вид битрейта : Постоянный
Битрейт : 192 Кбит/сек
Каналы : 2 канала
Расположение каналов : Front: L R
Частота : 48,0 КГц
Битовая глубина : 16 бит
Метод сжатия : С потерями
Размер потока : 179 Мбайт (3%)
Заголовок : Профессиональный многоголосый (НТВ+)
Язык : Russian
Default : Нет
Forced : Нет
Аудио #4
Идентификатор : 5
Формат : AC-3
Формат/Информация : Audio Coding 3
Расширение режима : CM (complete main)
Параметр Endianness формата : Big
Идентификатор кодека : A_AC3
Продолжительность : 2 ч. 10 м.
Вид битрейта : Постоянный
Битрейт : 224 Кбит/сек
Каналы : 2 канала
Расположение каналов : Front: L R
Частота : 48,0 КГц
Битовая глубина : 16 бит
Метод сжатия : С потерями
Размер потока : 209 Мбайт (3%)
Заголовок : Профессиональный многоголосый (TV1000)
Язык : Russian
Default : Нет
Forced : Нет
Аудио #5
Идентификатор : 6
Формат : AC-3
Формат/Информация : Audio Coding 3
Расширение режима : CM (complete main)
Параметр Endianness формата : Big
Идентификатор кодека : A_AC3
Продолжительность : 2 ч. 10 м.
Вид битрейта : Постоянный
Битрейт : 192 Кбит/сек
Каналы : 2 канала
Расположение каналов : Front: L R
Частота : 48,0 КГц
Битовая глубина : 16 бит
Метод сжатия : С потерями
Размер потока : 179 Мбайт (3%)
Заголовок : Профессиональный многоголосый (ОРТ)
Язык : Russian
Default : Нет
Forced : Нет
Аудио #6
Идентификатор : 7
Формат : AC-3
Формат/Информация : Audio Coding 3
Расширение режима : CM (complete main)
Параметр Endianness формата : Big
Идентификатор кодека : A_AC3
Продолжительность : 2 ч. 10 м.
Вид битрейта : Постоянный
Битрейт : 448 Кбит/сек
Каналы : 6 каналов
Расположение каналов : Front: L C R, Side: L R, LFE
Частота : 48,0 КГц
Битовая глубина : 16 бит
Метод сжатия : С потерями
Размер потока : 417 Мбайт (7%)
Заголовок : Авторский одноголосый (Гаврилов)
Язык : Russian
Default : Нет
Forced : Нет
Аудио #7
Идентификатор : 8
Формат : AC-3
Формат/Информация : Audio Coding 3
Расширение режима : CM (complete main)
Параметр Endianness формата : Big
Идентификатор кодека : A_AC3
Продолжительность : 2 ч. 10 м.
Вид битрейта : Постоянный
Битрейт : 448 Кбит/сек
Каналы : 6 каналов
Расположение каналов : Front: L C R, Side: L R, LFE
Частота : 48,0 КГц
Битовая глубина : 16 бит
Метод сжатия : С потерями
Размер потока : 417 Мбайт (7%)
Заголовок : Авторский одноголосый (Живов)
Язык : Russian
Default : Нет
Forced : Нет
Аудио #8
Идентификатор : 9
Формат : AC-3
Формат/Информация : Audio Coding 3
Расширение режима : CM (complete main)
Параметр Endianness формата : Big
Идентификатор кодека : A_AC3
Продолжительность : 2 ч. 10 м.
Вид битрейта : Постоянный
Битрейт : 448 Кбит/сек
Каналы : 6 каналов
Расположение каналов : Front: L C R, Side: L R, LFE
Частота : 48,0 КГц
Битовая глубина : 16 бит
Метод сжатия : С потерями
Размер потока : 417 Мбайт (7%)
Заголовок : Авторский одноголосый (Горчаков)
Язык : Russian
Default : Нет
Forced : Нет
Аудио #9
Идентификатор : 10
Формат : AC-3
Формат/Информация : Audio Coding 3
Расширение режима : CM (complete main)
Параметр Endianness формата : Big
Идентификатор кодека : A_AC3
Продолжительность : 2 ч. 10 м.
Вид битрейта : Постоянный
Битрейт : 128 Кбит/сек
Каналы : 2 канала
Расположение каналов : Front: L R
Частота : 48,0 КГц
Битовая глубина : 16 бит
Метод сжатия : С потерями
Размер потока : 119 Мбайт (2%)
Заголовок : Авторский одноголосый (Володарский)
Язык : Russian
Default : Нет
Forced : Нет
Аудио #10
Идентификатор : 11
Формат : AC-3
Формат/Информация : Audio Coding 3
Расширение режима : CM (complete main)
Параметр Endianness формата : Big
Идентификатор кодека : A_AC3
Продолжительность : 2 ч. 10 м.
Вид битрейта : Постоянный
Битрейт : 192 Кбит/сек
Каналы : 2 канала
Расположение каналов : Front: L R
Частота : 48,0 КГц
Битовая глубина : 16 бит
Метод сжатия : С потерями
Размер потока : 179 Мбайт (3%)
Заголовок : Авторский одноголосый (диктор CDV)
Язык : Russian
Default : Нет
Forced : Нет
Аудио #11
Идентификатор : 12
Формат : AC-3
Формат/Информация : Audio Coding 3
Расширение режима : CM (complete main)
Параметр Endianness формата : Big
Идентификатор кодека : A_AC3
Продолжительность : 2 ч. 10 м.
Вид битрейта : Постоянный
Битрейт : 448 Кбит/сек
Каналы : 6 каналов
Расположение каналов : Front: L C R, Side: L R, LFE
Частота : 48,0 КГц
Битовая глубина : 16 бит
Метод сжатия : С потерями
Размер потока : 417 Мбайт (7%)
Заголовок : Оригинал
Язык : English
Default : Нет
Forced : Нет
Текст #1
Идентификатор : 13
Формат : UTF-8
Идентификатор кодека : S_TEXT/UTF8
Идентификатор кодека/Информация : UTF-8 Plain Text
Заголовок : Английские
Язык : English
Default : Да
Forced : Нет
Текст #2
Идентификатор : 14
Формат : UTF-8
Идентификатор кодека : S_TEXT/UTF8
Идентификатор кодека/Информация : UTF-8 Plain Text
Заголовок : Русские
Язык : Russian
Default : Нет
Forced : Нет
Меню
00:00:00.000 : en:Murder Most Brutal
00:04:49.414 : en:Interrogation: "You Find This Man!"
00:09:38.911 : en:Trial and Sentencing
00:12:57.735 : en:The Bus to Menard
00:14:49.555 : en:Out of Control
00:16:34.702 : en:Train Coming
00:18:52.297 : en:"Just Don't Follow Me"
00:20:19.968 : en:Gerard Takes Charge
00:23:08.261 : en:"Your Fugitive's Name Is Dr. Richard Kimble"
00:25:34.032 : en:Teamwork
00:26:29.588 : en:"Every Time I Look in the Mirror, Pal"
00:29:46.284 : en:Instant Diagnosis
00:31:25.717 : en:Overheard Pursuit
00:34:21.934 : en:Underground Pursuit
00:36:44.952 : en:"I Didn't Kill My Wife"
00:38:02.571 : en:Taking the Plunge
00:39:41.754 : en:River Search
00:42:18.869 : en:Bad Dreams; a New Look
00:45:34.732 : en:Raid on Copeland's House
00:48:35.037 : en:"I Don't Bargain"
00:50:06.169 : en:Back in Chicago
00:53:26.536 : en:Meeting Nichols
00:56:00.648 : en:Cook County Hospital
00:59:19.931 : en:Background Checks
01:02:52.602 : en:House Under Siege
01:07:44.268 : en:Practicing Medicine
01:13:49.299 : en:An Interest in Prosthetics
01:15:41.370 : en:Visiting Clive Driscoll
01:19:16.251 : en:Face to Face
01:21:53.867 : en:The Luck of the Irish
01:24:42.619 : en:Breaking and Entering
01:29:46.923 : en:A Big Piece of the Puzzle
01:35:26.387 : en:"It Was Me There Were After"
01:36:58.854 : en:Over This Ground Before
01:40:53.047 : en:Someone with Access
01:44:24.091 : en:Marked Man on the El
01:50:03.972 : en:An Interrupted Speech
01:54:43.084 : en:Mayhem on the Roof
01:58:28.059 : en:Stalkers in the Laundry
02:02:41.562 : en:Time to Stop Running
02:04:04.812 : en:Their Secret
02:05:50.251 : en:End Credits
 
Показать сообщения:    

Текущее время: Сегодня 06:04

Часовой пояс: GMT



Вы не можете начинать темы
Вы не можете отвечать на сообщения
Вы не можете редактировать свои сообщения
Вы не можете удалять свои сообщения
Вы не можете голосовать в опросах
Вы не можете прикреплять файлы к сообщениям
Вы не можете скачивать файлы