Важное объявление!
У Нас Все раздачи мультитрекерные, при нуле пиров в релизах, можете смело вставать на закачку!
 
Автор Сообщение

HUNTER

Стаж:
4 года 4 месяца
Сообщений:
56829

Репутация: 101

[+] [-]
Вне форума [Профиль] [ЛС]

Беар Гриллс: Кадры спасения / Bear Grylls: Xtrime survival caught on camera
-Дата/Год выпуска: 2013
Страна: Великобритания
Жанр: Документальный, экстрим, реальное ТВ
Продолжительность: 8 x ~ 00:22:00
Перевод: Профессиональный (многоголосый, закадровый) -
Русские субтитры: нет-Режиссер: Дэвид О'Нейлл / David O'neill-О фильме: Беар Гриллс познакомит нас с рядом историй выживания в экстремальных условиях, с точки зрения их непосредственных участников. Узнайте, как же им удалось остаться в живых.-Релиз от: -Качество: HDTVRip [Сэмпл]
Формат: AVI
Видео: Xvid 720x400 30fps 8bit 1 522 Kbps
Аудио: Dolby AC3 48000Hz stereo 2ch 192kbps

Скриншоты

Название серий

1 серия. Снег
2 серия. Дороги
3 серия. Животные
4 серия. Воздух
5 серия. Вода
6 серия. Силы природы
7 серия. Работа
8 серия. Любители острых ощущений

MediaInfo

Формат : AVIФормат/Информация : Audio Video InterleaveРазмер файла : 268 МбайтПродолжительность : 21 м.Общий поток : 1726 Кбит/секПрограмма кодирования : VirtualDubMod 1.5.10.3 | www.virtualdub-fr.org || (build 2550/release)Библиотека кодирования : VirtualDubMod build 2550/release
ВидеоИдентификатор : 0Формат : MPEG-4 VisualПрофиль формата : Advanced Simple@L5Параметр BVOP формата : 1Параметр QPel формата : НетПараметр GMC формата : Без точки переходаПараметр матрицы формата : Default (MPEG)Идентификатор кодека : XVIDИдентификатор кодека/Подсказка : XviDПродолжительность : 21 м.Битрейт : 1522 Кбит/секШирина : 720 пикселейВысота : 400 пикселейСоотношение сторон : 16:9Частота кадров : 30,000 кадров/секЦветовое пространство : YUVСубдискретизация насыщенности : 4:2:0Битовая глубина : 8 битТип развёртки : ПрогрессивнаяМетод сжатия : С потерямиБит/(Пиксели*Кадры) : 0.176Размер потока : 237 Мбайт (88%)Библиотека кодирования : XviD 1.2.1 (UTC 2008-12-04)
АудиоИдентификатор : 1Формат : AC-3Формат/Информация : Audio Coding 3Расширение режима : CM (complete main)Параметр Endianness формата : BigИдентификатор кодека : 2000Продолжительность : 21 м.Вид битрейта : ПостоянныйБитрейт : 192 Кбит/секКаналы : 2 каналаРасположение каналов : Front: L RЧастота : 48,0 КГцМетод сжатия : С потерямиРазмер потока : 29,8 Мбайт (11%)Выравнивание : Разделение по промежуткамПродолжительность промежутка : 33 мс. (1,00 видеокадр)Время предзагрузки промежутка : 500 мс.

_________________
Показать сообщения:    

Текущее время: Сегодня 17:10

Часовой пояс: GMT



Вы не можете начинать темы
Вы не можете отвечать на сообщения
Вы не можете редактировать свои сообщения
Вы не можете удалять свои сообщения
Вы не можете голосовать в опросах
Вы не можете прикреплять файлы к сообщениям
Вы не можете скачивать файлы