Важное объявление!
У Нас Все раздачи мультитрекерные, при нуле пиров в релизах, можете смело вставать на закачку!
 
Автор Сообщение

HUNTER

Стаж:
4 года 4 месяца
Сообщений:
56839

Репутация: 101

[+] [-]
Вне форума [Профиль] [ЛС]

Батарейки не прилагаются / *batteries not included«Five ordinary people needed a miracle.
Then one night, Faye Riley left the window open»
________________________________________________________________________________________
Страна: США
Студия: Universal Pictures, Amblin Entertainment
Жанр: фантастика, фэнтези, драма, комедия, семейный
Год выпуска: 1987
Продолжительность: 01:46:29
Перевод 1: Профессиональный (двухголосый закадровый) | Премьер Мультимедиа
Перевод 2: Профессиональный (двухголосый закадровый) | НТВ+
Перевод 3: Профессиональный (двухголосый закадровый) | ОРТ
Перевод 4: Профессиональный (двухголосый закадровый) | СТС
Перевод 5: Авторский (одноголосый закадровый) | А. Михалёв
Оригинальная аудиодорожка: английский
Cубтитры: русские, английские
Режиссер: (Мэттью Роббинс / Matthew Robbins)
В ролях: Хьюм Кронин, Джессика Тэнди, Фрэнк МакРей, Элизабет Пенья, Майкл Кармине, Деннис Буцикарис, Том Элдридж, Джейн Хоффман, Джон ДиСанти, Джон Пэнкоу
Описание: Дом, в котором живут наши герои, подлежит сносу, и горстка домочадцев - пожилая семейная пара Райли, бывший боксер Гарри, молодая пуэрториканка Мариса и художник Мэйсон - отчаянно борются за спасение милых сердцу трущоб.
Беднягам остается надеятся только на чудо, и оно случается: помощь приходит от братьев по разуму. Однажды ночью квартиру Райли посещают неожиданные гости - крохотные НЛО.
________________________________________________________________________________________

Исходник: HDClub
Видеоряд: CtrlHD
Тип релиза: BDRip 720p
Контейнер: MKV
Видео: 1280x692 at 23.976 fps, x264@L4.1, crf, ~8821 kbps avg
Аудио 1: Russian: 48 kHz, AC3, 2/0 (L,R) ch, ~192.00 kbps avg |Двухголосый, Премьер Мультимедиа|
Аудио 2: Russian: 48 kHz, AC3, 2/0 (L,R) ch, ~192.00 kbps avg |Двухголосый, НТВ+|
Аудио 3: Russian: 48 kHz, AC3, 2/0 (L,R) ch, ~192.00 kbps avg |Двухголосый, ОРТ|
Аудио 4: Russian: 48 kHz, AC3, 2/0 (L,R) ch, ~192.00 kbps avg |Двухголосый, СТС|
Аудио 5: Russian: 48 kHz, DTS, 3/2 (L,C,R,l,r) + LFE ch, ~1509.00 kbps avg |Одноголосый, А. Михалёв|
Аудио 6: Ukrainian: 48 kHz, AC3, 2/0 (L,R) ch, ~128.00 kbps avg |Двухголосый, ICTV / 1+1|
Аудио 7: English: 48 kHz, DTS, 3/2 (L,C,R,l,r) + LFE ch, ~1509.00 kbps avg
Cубтитры: Russian, English (full, SDH)

MediaInfo

General
Unique ID : 190867930284427675976293552135627255302 (0x8F97D3843079777EAA8E676C473EAE06)
Complete name : D:\
batteries.not.included.1987.720p.BluRay.5xRus.Ukr.Eng.-CtrlHD.mkv
Format : Matroska
Format version : Version 4 / Version 2
File size : 9.66 GiB
Duration : 1h 46mn
Overall bit rate : 13.0 Mbps
Movie name : Батарейки не прилагаются / *batteries not included (1987)
Encoded date : UTC 2016-03-20 07:49:00
Writing application : mkvmerge v8.9.0 ('Father Daughter') 64bit
Writing library : libebml v1.3.3 + libmatroska v1.4.4
Cover : Yes
Attachments : cover.jpg
Video
ID : 1
Format : AVC
Format/Info : Advanced Video Codec
Format profile : High@L4.1
Format settings, CABAC : Yes
Format settings, ReFrames : 9 frames
Codec ID : V_MPEG4/ISO/AVC
Duration : 1h 46mn
Bit rate : 8 821 Kbps
Width : 1 280 pixels
Height : 692 pixels
Display aspect ratio : 1.85:1
Frame rate mode : Constant
Frame rate : 23.976 (24000/1001) fps
Color space : YUV
Chroma subsampling : 4:2:0
Bit depth : 8 bits
Scan type : Progressive
Bits/(Pixel*Frame) : 0.415
Stream size : 6.56 GiB (68%)
Title : Батарейки не прилагаются / *batteries not included (1987) BDRip 720p -=CtrlHD=-
Writing library : x264 core 148 r2665kMod a01e339
Encoding settings : cabac=1 / ref=9 / deblock=1:-3:-3 / analyse=0x3:0x133 / me=umh / subme=10 / psy=1 / fade_compensate=0.00 / psy_rd=1.05:0.00 / mixed_ref=1 / me_range=32 / chroma_me=1 / trellis=2 / 8x8dct=1 / cqm=0 / deadzone=21,11 / fast_pskip=1 / chroma_qp_offset=-2 / threads=6 / lookahead_threads=1 / sliced_threads=0 / nr=0 / decimate=0 / interlaced=0 / bluray_compat=0 / constrained_intra=0 / fgo=0 / bframes=8 / b_pyramid=2 / b_adapt=2 / b_bias=0 / direct=3 / weightb=1 / open_gop=0 / weightp=2 / keyint=250 / keyint_min=23 / scenecut=40 / intra_refresh=0 / rc_lookahead=60 / rc=crf / mbtree=0 / crf=18.0000 / qcomp=0.65 / qpmin=0 / qpmax=69 / qpstep=4 / vbv_maxrate=62500 / vbv_bufsize=78125 / crf_max=0.0 / nal_hrd=none / filler=0 / ip_ratio=1.30 / pb_ratio=1.20 / aq=3:0.80
Language : English
Default : Yes
Forced : No
Audio #1
ID : 2
Format : AC-3
Format/Info : Audio Coding 3
Mode extension : CM (complete main)
Format settings, Endianness : Big
Codec ID : A_AC3
Duration : 1h 46mn
Bit rate mode : Constant
Bit rate : 192 Kbps
Channel(s) : 2 channels
Channel positions : Front: L R
Sampling rate : 48.0 KHz
Frame rate : 31.250 fps (1536 spf)
Compression mode : Lossy
Stream size : 146 MiB (1%)
Title : Двухголосый, Премьер Мультимедиа
Language : Russian
Default : Yes
Forced : No
Audio #2
ID : 3
Format : AC-3
Format/Info : Audio Coding 3
Mode extension : CM (complete main)
Format settings, Endianness : Big
Codec ID : A_AC3
Duration : 1h 46mn
Bit rate mode : Constant
Bit rate : 192 Kbps
Channel(s) : 2 channels
Channel positions : Front: L R
Sampling rate : 48.0 KHz
Frame rate : 31.250 fps (1536 spf)
Compression mode : Lossy
Stream size : 146 MiB (1%)
Title : Двухголосый, НТВ+
Language : Russian
Default : No
Forced : No
Audio #3
ID : 4
Format : AC-3
Format/Info : Audio Coding 3
Mode extension : CM (complete main)
Format settings, Endianness : Big
Codec ID : A_AC3
Duration : 1h 46mn
Bit rate mode : Constant
Bit rate : 192 Kbps
Channel(s) : 2 channels
Channel positions : Front: L R
Sampling rate : 48.0 KHz
Frame rate : 31.250 fps (1536 spf)
Compression mode : Lossy
Stream size : 146 MiB (1%)
Title : Двухголосый, ОРТ
Language : Russian
Default : No
Forced : No
Audio #4
ID : 5
Format : AC-3
Format/Info : Audio Coding 3
Mode extension : CM (complete main)
Format settings, Endianness : Big
Codec ID : A_AC3
Duration : 1h 46mn
Bit rate mode : Constant
Bit rate : 192 Kbps
Channel(s) : 2 channels
Channel positions : Front: L R
Sampling rate : 48.0 KHz
Frame rate : 31.250 fps (1536 spf)
Compression mode : Lossy
Stream size : 146 MiB (1%)
Title : Двухголосый, СТС
Language : Russian
Default : No
Forced : No
Audio #5
ID : 6
Format : DTS
Format/Info : Digital Theater Systems
Mode : 16
Format settings, Endianness : Big
Codec ID : A_DTS
Duration : 1h 46mn
Bit rate mode : Constant
Bit rate : 1 509 Kbps
Channel(s) : 6 channels
Channel positions : Front: L C R, Side: L R, LFE
Sampling rate : 48.0 KHz
Frame rate : 93.750 fps (512 spf)
Bit depth : 24 bits
Compression mode : Lossy
Stream size : 1.12 GiB (12%)
Title : Одноголосый, А. Михалёв
Language : Russian
Default : No
Forced : No
Audio #6
ID : 7
Format : AC-3
Format/Info : Audio Coding 3
Mode extension : CM (complete main)
Format settings, Endianness : Big
Codec ID : A_AC3
Duration : 1h 46mn
Bit rate mode : Constant
Bit rate : 128 Kbps
Channel(s) : 2 channels
Channel positions : Front: L R
Sampling rate : 48.0 KHz
Frame rate : 31.250 fps (1536 spf)
Compression mode : Lossy
Stream size : 97.5 MiB (1%)
Title : Двухголосый, ICTV / 1+1
Language : Ukrainian
Default : No
Forced : No
Audio #7
ID : 8
Format : DTS
Format/Info : Digital Theater Systems
Mode : 16
Format settings, Endianness : Big
Codec ID : A_DTS
Duration : 1h 46mn
Bit rate mode : Constant
Bit rate : 1 509 Kbps
Channel(s) : 6 channels
Channel positions : Front: L C R, Side: L R, LFE
Sampling rate : 48.0 KHz
Frame rate : 93.750 fps (512 spf)
Bit depth : 24 bits
Compression mode : Lossy
Stream size : 1.12 GiB (12%)
Language : English
Default : No
Forced : No
Text #1
ID : 9
Format : UTF-8
Codec ID : S_TEXT/UTF8
Codec ID/Info : UTF-8 Plain Text
Language : Russian
Default : No
Forced : No
Text #2
ID : 10
Format : UTF-8
Codec ID : S_TEXT/UTF8
Codec ID/Info : UTF-8 Plain Text
Language : English
Default : No
Forced : No
Text #3
ID : 11
Format : UTF-8
Codec ID : S_TEXT/UTF8
Codec ID/Info : UTF-8 Plain Text
Title : English SDH
Language : English
Default : No
Forced : No
Menu
00:00:00.000 : en:Main Titles
00:03:00.680 : en:The Wrecking Crew
00:12:42.220 : en:Time to Quit
00:18:15.803 : en:Sunset
00:21:44.887 : en:Night Visitors
00:29:12.751 : en:The Little Guys
00:38:40.944 : en:Carlos' Big Shock
00:51:20.160 : en:The Big Night
00:57:14.056 : en:Back in Business
01:03:27.679 : en:The Miracle Cure
01:06:35.408 : en:Mr. Lacey
01:09:55.608 : en:Alive & Kicking
01:15:29.775 : en:The Hatchet Man
01:20:13.434 : en:The Lost Saucers
01:26:14.378 : en:Letting Go
01:27:53.351 : en:The Fire Bomb
01:34:56.482 : en:Help From Above
01:41:33.879 : en:End Titles

Скриншоты


Знаете ли вы, что...

  • В сцене, где Карлос приходит в офис мистера Лейси, они рассматривают модель будущих небоскрёбов, между которыми стоит маленькая моделька проблемного дома.
  • Актёры Джессика Тенди и Хьюм Кронин, сыгравшие Фэй и Френка Райли на самом деле муж и жена.

_________________
Показать сообщения:    

Текущее время: Сегодня 07:40

Часовой пояс: GMT



Вы не можете начинать темы
Вы не можете отвечать на сообщения
Вы не можете редактировать свои сообщения
Вы не можете удалять свои сообщения
Вы не можете голосовать в опросах
Вы не можете прикреплять файлы к сообщениям
Вы не можете скачивать файлы