Важное объявление!
У Нас Все раздачи мультитрекерные, при нуле пиров в релизах, можете смело вставать на закачку!
 
Автор Сообщение

HUNTER

Стаж:
4 года 4 месяца
Сообщений:
56749

Репутация: 101

[+] [-]
Вне форума [Профиль] [ЛС]

Батарейка / The Battery / Ben & Mickey vs. The Dead
Страна: США
Студия: O. Hannah Films
Жанр: драма, триллер
Год выпуска: 2012
Продолжительность: 01:40:25
Перевод: Любительский (двухголосый закадровый) 2D
Cубтитры: русские, английские, английские (SDH)
Оригинальная аудиодорожка: английский
Режиссер: Джереми Гарднер / Jeremy Gardner
В ролях: Джереми Гарднер, Адам Кронхейм, Нильс Болл, Алана О’Брайэн, Джэми Пантанелла, Ларри Фесенден, Келли МакКвейд, Эрик Саймон, Бен Призби, Сара Аллен
Описание: В фильме рассказывается история двух бейсболистов, Бена и Микки, которые путешествуют по всей Новой Англии, куда глаза глядят. Единственная проблема в том, что человечество практически вымерло, и зомби можно встретить на каждом шагу. Герои фильма скитаются по лесам, избегая городов, лишь изредка заходя в дома. Во время путешествия по пустынным окрестностям, Микки находит пару раций, из которых доносится разговор группы выживших…

Сэмпл: http://multi-up.com/1019318
Тип релиза: BDRip 720p
Контейнер: MKV
Видео: MPEG4 Video (H264) 1280x546 (61:26) 23.976fps 6 528 Kbps
Аудио: Русский AC-3 / 2 ch / 48.0 KHz / 192 Kbps | DeadSno & Den904
Аудио 2: Английский AC-3 / 6 ch / 48.0 KHz / 640 Kbps | Original
Формат субтитров: softsub (SRT)

MediaInfo

General
Unique ID : 190984590265618517331125296657229244622 (0x8FAE4B4C29C754E4BE77126BB31D68CE)
Complete name : C:\Users\Вика\Desktop\The.Battery.2012.720p.BDRip.mkv
Format : Matroska
Format version : Version 4 / Version 2
File size : 5.27 GiB
Duration : 1h 40mn
Overall bit rate : 7 509 Kbps
Movie name : The Battery (2012)
Encoded date : UTC 2014-12-10 09:58:36
Writing application : mkvmerge v6.9.1 ('Blue Panther') 64bit built on Apr 18 2014 18:23:38
Writing library : libebml v1.3.0 + libmatroska v1.4.1
DURATION : 01:38:37.619000000
NUMBER_OF_FRAMES : 955
NUMBER_OF_BYTES : 33358
_STATISTICS_WRITING_APP : mkvmerge v7.3.0 ('Nouages') 64bit built on Oct 22 2014 18:53:34
_STATISTICS_WRITING_DATE_UTC : 2014-12-03 07:00:13
_STATISTICS_TAGS : BPS DURATION NUMBER_OF_FRAMES NUMBER_OF_BYTES
Video
ID : 1
Format : AVC
Format/Info : Advanced Video Codec
Format profile : High@L4.1
Format settings, CABAC : Yes
Format settings, ReFrames : 11 frames
Codec ID : V_MPEG4/ISO/AVC
Duration : 1h 40mn
Bit rate : 6 528 Kbps
Width : 1 280 pixels
Height : 546 pixels
Display aspect ratio : 2.35:1
Original display aspect ratio : 2.35:1
Frame rate mode : Constant
Frame rate : 23.976 fps
Color space : YUV
Chroma subsampling : 4:2:0
Bit depth : 8 bits
Scan type : Progressive
Bits/(Pixel*Frame) : 0.390
Stream size : 4.58 GiB (87%)
Title : The Battery (2012)
Writing library : x264 core 142 r2491kMod 24e4fed
Encoding settings : cabac=1 / ref=11 / deblock=1:-3:-3 / analyse=0x3:0x133 / me=umh / subme=10 / psy=1 / fade_compensate=0.00 / psy_rd=0.90:0.00 / mixed_ref=1 / me_range=24 / chroma_me=1 / trellis=2 / 8x8dct=1 / cqm=0 / deadzone=21,11 / fast_pskip=0 / chroma_qp_offset=-2 / threads=6 / lookahead_threads=1 / sliced_threads=0 / nr=0 / decimate=0 / interlaced=0 / bluray_compat=0 / constrained_intra=0 / fgo=0 / bframes=11 / b_pyramid=2 / b_adapt=2 / b_bias=0 / direct=3 / weightb=1 / open_gop=0 / weightp=2 / keyint=250 / keyint_min=23 / scenecut=40 / intra_refresh=0 / rc=crf / mbtree=0 / crf=16.0000 / qcomp=0.60 / qpmin=0 / qpmax=69 / qpstep=4 / ip_ratio=1.30 / pb_ratio=1.20 / aq=2:0.60
Language : English
Default : Yes
Forced : No
DURATION : 01:40:25.395000000
NUMBER_OF_FRAMES : 144465
NUMBER_OF_BYTES : 5027144094
_STATISTICS_WRITING_APP : mkvmerge v7.3.0 ('Nouages') 64bit built on Oct 22 2014 18:53:34
_STATISTICS_WRITING_DATE_UTC : 2014-12-03 07:00:13
_STATISTICS_TAGS : BPS DURATION NUMBER_OF_FRAMES NUMBER_OF_BYTES
Audio #1
ID : 2
Format : AC-3
Format/Info : Audio Coding 3
Mode extension : CM (complete main)
Format settings, Endianness : Big
Codec ID : A_AC3
Duration : 1h 40mn
Bit rate mode : Constant
Bit rate : 192 Kbps
Channel count : 2 channels
Channel positions : Front: L R
Sampling rate : 48.0 KHz
Bit depth : 16 bits
Compression mode : Lossy
Stream size : 138 MiB (3%)
Title : DVO (Den904 & DeadSno)
Language : Russian
Default : Yes
Forced : No
Audio #2
ID : 3
Format : AC-3
Format/Info : Audio Coding 3
Mode extension : CM (complete main)
Format settings, Endianness : Big
Codec ID : A_AC3
Duration : 1h 40mn
Bit rate mode : Constant
Bit rate : 640 Kbps
Channel count : 6 channels
Channel positions : Front: L C R, Side: L R, LFE
Sampling rate : 48.0 KHz
Bit depth : 16 bits
Compression mode : Lossy
Stream size : 460 MiB (9%)
Language : English
Default : No
Forced : No
Text #1
ID : 4
Format : UTF-8
Codec ID : S_TEXT/UTF8
Codec ID/Info : UTF-8 Plain Text
Language : Russian
Default : No
Forced : No
Text #2
ID : 5
Format : UTF-8
Codec ID : S_TEXT/UTF8
Codec ID/Info : UTF-8 Plain Text
Language : English
Default : No
Forced : No
Text #3
ID : 6
Format : UTF-8
Codec ID : S_TEXT/UTF8
Codec ID/Info : UTF-8 Plain Text
Title : SDH
Language : English
Default : No
Forced : No
Menu
00:00:00.000 : en:Chapter 1
00:11:12.922 : en:Chapter 2
00:18:46.500 : en:Chapter 3
00:30:49.056 : en:Chapter 4
00:36:14.798 : en:Chapter 5
00:42:42.727 : en:Chapter 6
00:48:46.382 : en:Chapter 7
00:57:00.542 : en:Chapter 8
01:07:47.063 : en:Chapter 9
01:13:45.671 : en:Chapter 10
01:21:11.283 : en:Chapter 11
01:31:18.431 : en:Chapter 12

Скриншоты


_________________
Показать сообщения:    

Текущее время: Сегодня 23:05

Часовой пояс: GMT



Вы не можете начинать темы
Вы не можете отвечать на сообщения
Вы не можете редактировать свои сообщения
Вы не можете удалять свои сообщения
Вы не можете голосовать в опросах
Вы не можете прикреплять файлы к сообщениям
Вы не можете скачивать файлы