Важное объявление!
У Нас Все раздачи мультитрекерные, при нуле пиров в релизах, можете смело вставать на закачку!
 
Автор Сообщение

HUNTER

Стаж:
4 года 4 месяца
Сообщений:
56765

Репутация: 101

[+] [-]
Вне форума [Профиль] [ЛС]

Барби: Супер Принцесса
Barbie in Princess Power
-
Страна: США
Жанр: мультфильм, семейный
Продолжительность: 01:13:46
Год выпуска: 2015
Перевод: Профессиональный (дублированный) BD EUR
Русские субтитры: нет
Режиссёр: Зик Нортон / Zeke Norton
Роли озвучивали: Ребекка Хусейн, Майкл Копса, Кира Тозер, Patrica Drake, Майкл Адамуэйт, Alyssya Swales, Гейб Хаут, Табита Сен-Жермен, Кэтлин Барр, Брайан Драммонд-ОписаниеБарби блистает в роли Кары, современной принцессы, которая живет самой обыкновенной жизнью. Но после поцелуя волшебной бабочки Кара обнаруживает, что обладает магическими силами и может превращаться в Супер Принцессу, которая летает по всему королевству и готова победить любое зло. Однако ее завистливая кузина ловит волшебную бабочку и также трансформируется — но уже в Темную Принцессу! Борьба принцесс накаляется до предела, но, узнав, что у королевства появился настоящий серьезный враг, смогут ли они объединиться в одну команду, забыв о прошлых разногласиях? С высоты птичьего полета отлично видно, что самая могущественная сила — это сила дружбы!-Сэмпл

IMDb: 5.40 (116)
Качество: BDRip-AVC Blu-ray disc 1080p
Формат: MKV
Видео: AVC 3253 Kbps 1152 x 648 (1.778) 23.976 fps
Аудио: AC-3 448 Kbps 6 channels, 48.0 KHz DUB Rus
Аудио 2: AC-3 448 Kbps 6 channels, 48.0 KHz Eng
Субтитры: Eng SRT

MI| Log

Log
x264 [info]: frame I:827 Avg QP:14.31 size: 93660
x264 [info]: frame P:32417 Avg QP:15.73 size: 32689
x264 [info]: frame B:72889 Avg QP:19.00 size: 9715
x264 [info]: consecutive B-frames: 7.6% 7.0% 21.0% 26.9% 15.7% 16.7% 2.0% 1.4% 0.4% 0.2% 0.1% 0.5% 0.6%
x264 [info]: mb I I16..4: 8.4% 72.7% 18.9%
x264 [info]: mb P I16..4: 2.5% 17.6% 2.6% P16..4: 26.8% 31.7% 10.5% 1.9% 0.2% skip: 6.3%
x264 [info]: mb B I16..4: 0.4% 2.0% 0.2% B16..8: 30.1% 19.1% 3.1% direct: 4.7% skip:40.3% L0:38.8% L1:45.0% BI:16.2%
x264 [info]: 8x8 transform intra:76.9% inter:59.7%
x264 [info]: direct mvs spatial:100.0% temporal:0.0%
x264 [info]: coded y,uvDC,uvAC intra: 80.4% 88.7% 75.1% inter: 16.9% 21.6% 10.3%
x264 [info]: i16 v,h,dc,p: 19% 9% 2% 70%
x264 [info]: i8 v,h,dc,ddl,ddr,vr,hd,vl,hu: 15% 12% 8% 8% 10% 11% 12% 11% 14%
x264 [info]: i4 v,h,dc,ddl,ddr,vr,hd,vl,hu: 16% 11% 7% 8% 14% 12% 13% 9% 10%
x264 [info]: i8c dc,h,v,p: 35% 25% 21% 19%
x264 [info]: Weighted P-Frames: Y:2.2% UV:1.4%
x264 [info]: ref P L0: 54.5% 9.6% 16.2% 5.4% 3.9% 2.8% 2.5% 1.3% 1.2% 1.1% 1.0% 0.4% 0.0%
x264 [info]: ref B L0: 79.3% 10.5% 4.2% 1.9% 1.3% 1.0% 0.8% 0.5% 0.3% 0.2%
x264 [info]: ref B L1: 93.5% 6.5%
x264 [info]: kb/s:3334.80
x264 [total]: encoded 106133 frames, 7.64 fps, 3334.80 kb/s, duration 3:51:23.55
Format : Matroska
Format version : Version 4 / Version 2
File size : 2.18 GiB
Duration : 1h 13mn
Overall bit rate : 4 233 Kbps
Encoded date : UTC 2015-05-19 22:29:41
Writing application : mkvmerge v6.7.0 ('Back to the Ground') 32bit built on Jan 8 2014 15:03:17
Writing library : libebml v1.3.0 + libmatroska v1.4.1
Video
ID : 1
Format : AVC
Format/Info : Advanced Video Codec
Format profile : High@L4.1
Format settings, CABAC : Yes
Format settings, ReFrames : 11 frames
Codec ID : V_MPEG4/ISO/AVC
Duration : 1h 13mn
Bit rate : 3 253 Kbps
Width : 1 152 pixels
Height : 648 pixels
Display aspect ratio : 16:9
Frame rate mode : Constant
Frame rate : 23.976 fps
Color space : YUV
Chroma subsampling : 4:2:0
Bit depth : 8 bits
Scan type : Progressive
Bits/(Pixel*Frame) : 0.182
Stream size : 1.68 GiB (77%)
Title : Barbie in Princess Power (2015) [rutracker.org]
Writing library : x264 core 146 r2538kMod 121396c
Encoding settings : cabac=1 / ref=11 / deblock=1:-2:-1 / analyse=0x3:0x133 / me=umh / subme=11 / psy=1 / fade_compensate=0.00 / psy_rd=1.00:0.05 / mixed_ref=1 / me_range=32 / chroma_me=1 / trellis=2 / 8x8dct=1 / cqm=0 / deadzone=21,11 / fast_pskip=0 / chroma_qp_offset=-3 / threads=12 / lookahead_threads=3 / sliced_threads=0 / nr=0 / decimate=1 / interlaced=0 / bluray_compat=0 / constrained_intra=0 / fgo=0 / bframes=12 / b_pyramid=2 / b_adapt=2 / b_bias=0 / direct=3 / weightb=1 / open_gop=0 / weightp=2 / keyint=250 / keyint_min=23 / scenecut=40 / intra_refresh=0 / rc_lookahead=80 / rc=crf / mbtree=0 / crf=17.1000 / qcomp=0.60 / qpmin=0 / qpmax=69 / qpstep=4 / vbv_maxrate=50000 / vbv_bufsize=62500 / crf_max=0.0 / nal_hrd=none / filler=0 / ip_ratio=1.40 / pb_ratio=1.30 / aq=3:0.90
Language : English
Default : Yes
Forced : No
Audio #1
ID : 2
Format : AC-3
Format/Info : Audio Coding 3
Mode extension : CM (complete main)
Format settings, Endianness : Big
Codec ID : A_AC3
Duration : 1h 13mn
Bit rate mode : Constant
Bit rate : 448 Kbps
Channel(s) : 6 channels
Channel positions : Front: L C R, Side: L R, LFE
Sampling rate : 48.0 KHz
Bit depth : 16 bits
Compression mode : Lossy
Stream size : 236 MiB (11%)
Title : DUB [BD EUR]
Language : Russian
Default : Yes
Forced : No
Audio #2
ID : 3
Format : AC-3
Format/Info : Audio Coding 3
Mode extension : CM (complete main)
Format settings, Endianness : Big
Codec ID : A_AC3
Duration : 1h 13mn
Bit rate mode : Constant
Bit rate : 448 Kbps
Channel(s) : 6 channels
Channel positions : Front: L C R, Side: L R, LFE
Sampling rate : 48.0 KHz
Bit depth : 16 bits
Compression mode : Lossy
Stream size : 236 MiB (11%)
Title : Original
Language : English
Default : No
Forced : No
Text
ID : 4
Format : UTF-8
Codec ID : S_TEXT/UTF8
Codec ID/Info : UTF-8 Plain Text
Title : SDH
Language : English
Default : No
Forced : No
Menu
00:00:00.000 : en:00:00:00.000
00:04:49.498 : en:00:04:49.498
00:09:22.187 : en:00:09:22.187
00:16:23.774 : en:00:16:23.774
00:23:26.196 : en:00:23:26.196
00:28:24.161 : en:00:28:24.161
00:33:44.314 : en:00:33:44.314
00:40:29.052 : en:00:40:29.052
00:48:55.224 : en:00:48:55.224
00:55:24.780 : en:00:55:24.780
01:00:39.094 : en:01:00:39.094
01:07:41.182 : en:01:07:41.182

Скриншоты




_________________
Показать сообщения:    

Текущее время: Сегодня 05:43

Часовой пояс: GMT



Вы не можете начинать темы
Вы не можете отвечать на сообщения
Вы не можете редактировать свои сообщения
Вы не можете удалять свои сообщения
Вы не можете голосовать в опросах
Вы не можете прикреплять файлы к сообщениям
Вы не можете скачивать файлы