Важное объявление!
У Нас Все раздачи мультитрекерные, при нуле пиров в релизах, можете смело вставать на закачку!
 
Автор Сообщение

HUNTER

Стаж:
4 года 4 месяца
Сообщений:
56734

Репутация: 101

[+] [-]
Вне форума [Профиль] [ЛС]

Барби: Супер Принцесса / Barbie in Princess Power-
Страна: США
Жанр: мультфильм
Год выпуска: 2015
Продолжительность: 01:13:46
Перевод: Профессиональный (полное дублирование)
Русские субтитры: Нет-Режиссер: Зик Нортон / Zeke Norton-Описание: Барби блистает в роли Кары, современной принцессы, которая живет самой обыкновенной жизнью. Но после поцелуя волшебной бабочки Кара обнаруживает, что обладает магическими силами и может превращаться в Супер Принцессу, которая летает по всему королевству и готова победить любое зло. Однако ее завистливая кузина ловит волшебную бабочку и также трансформируется – но уже в Темную Принцессу! Борьба принцесс накаляется до предела, но, узнав, что у королевства появился настоящий серьезный враг, смогут ли они объединиться в одну команду, забыв о прошлых разногласиях? Взлетай выше, и ты увидишь, что самая могущественная сила – это сила дружбы!-Рейтинг:
-Релиз: -Семпл-Качество: BDRip [BARBIE_PPOWER_UPB1_HDCLUB]
Формат: AVI
Видео: 656x368 (1.78:1), 23.976 fps, XviD build 65 ~1275 kbps avg, 0.22 bit/pixel
Аудио: 48 kHz, MPEG Layer 3, 2 ch, ~128.00 kbps avg
Субтитры: Отсутствуют-

MI

Format : AVIFormat/Info : Audio Video InterleaveFile size : 746 MiBDuration : 1h 13mnOverall bit rate : 1 413 KbpsWriting application : VirtualDubMod 1.5.10.3 | www.virtualdub-fr.org || (build 2550/release)Writing library : VirtualDubMod build 2550/release
VideoID : 0Format : MPEG-4 VisualFormat profile : Advanced Simple@L5Format settings, BVOP : 2Format settings, QPel : NoFormat settings, GMC : No warppointsFormat settings, Matrix : CustomCodec ID : XVIDCodec ID/Hint : XviDDuration : 1h 13mnBit rate : 1 276 KbpsWidth : 656 pixelsHeight : 368 pixelsDisplay aspect ratio : 16:9Frame rate : 23.976 fpsColor space : YUVChroma subsampling : 4:2:0Bit depth : 8 bitsScan type : ProgressiveCompression mode : LossyBits/(Pixel*Frame) : 0.220Stream size : 673 MiB (90%)Writing library : XviD 65
AudioID : 1Format : MPEG AudioFormat version : Version 1Format profile : Layer 3Codec ID : 55Codec ID/Hint : MP3Duration : 1h 13mnBit rate mode : ConstantBit rate : 128 KbpsChannel(s) : 2 channelsSampling rate : 48.0 KHzCompression mode : LossyStream size : 67.5 MiB (9%)Alignment : Aligned on interleavesInterleave, duration : 42 ms (1.00 video frame)Interleave, preload duration : 504 msWriting library : LAME3.99rEncoding settings : -m s -V 4 -q 2 -lowpass 17 -b 128
Все раздачи мультфильма!

_________________
Показать сообщения:    

Текущее время: Сегодня 14:21

Часовой пояс: GMT



Вы не можете начинать темы
Вы не можете отвечать на сообщения
Вы не можете редактировать свои сообщения
Вы не можете удалять свои сообщения
Вы не можете голосовать в опросах
Вы не можете прикреплять файлы к сообщениям
Вы не можете скачивать файлы