Важное объявление!
У Нас Все раздачи мультитрекерные, при нуле пиров в релизах, можете смело вставать на закачку!
 
Автор Сообщение

HUNTER

Стаж:
4 года 4 месяца
Сообщений:
56790

Репутация: 101

[+] [-]
Вне форума [Профиль] [ЛС]

Барби и Волшебство Пегаса / Barbie and the Magic of Pegasus
Год выпуска: 2005
Страна: США, Universal Pictures Rus
Жанр: мультфильм, детский
Продолжительность: 01:24:21
Перевод: Профессиональный (полное дублирование)
Русские субтитры: нет
Режиссер: Грег Ричардсон / Greg Richardson
В ролях: Линна Арая, Морвенна Банкс, Катлин Барр, Шантия Флеминг, Пам Хятт, Мелисса Ляинс, Келли Шеридан-Описание: Приключения принцессы Анники начинаются с того момента, как она подружилась с Бриттой, чудесным крылатым конем, который уносит ее в сказочное Королевство Облаков. У Анники есть всего три дня, чтобы разрушить чары злого колдуна Венлока, превратившего ее семью в камень.- -Качество: DVDRip (Сэмпл)
Формат: AVI
Видео: 720x400 (1.80:1), 25 fps, XviD ~1821 kbps, 0.25 bit/pixel
Аудио #1: 48 kHz, AC3, 3/2 (L,C,R,l,r) + LFE ch, ~448 kbps (RUS)
Аудио #2: 48 kHz, AC3, 2/0 (L,R) ch, ~192 kbps (ENG)

MediaInfo

GeneralComplete name : Barbi_Volshebstvo Pegasa_2005_Olu6ka.aviFormat : AVIFormat/Info : Audio Video InterleaveFile size : 1.46 GiBDuration : 1h 24mnOverall bit rate : 2 477 KbpsWriting application : VirtualDubModRus 1.5.10.2 (build 2542/release)Writing library : VirtualDubMod build 2542/release
VideoID : 0Format : MPEG-4 VisualFormat profile : Advanced Simple@L5Format settings, BVOP : 1Format settings, QPel : NoFormat settings, GMC : No warppointsFormat settings, Matrix : CustomCodec ID : XVIDCodec ID/Hint : XviDDuration : 1h 24mnBit rate : 1 822 KbpsWidth : 720 pixelsHeight : 400 pixelsDisplay aspect ratio : 16:9Frame rate : 25.000 fpsColor space : YUVChroma subsampling : 4:2:0Bit depth : 8 bitsScan type : ProgressiveCompression mode : LossyBits/(Pixel*Frame) : 0.253Stream size : 1.07 GiB (74%)Writing library : XviD 65
Audio #1ID : 1Format : AC-3Format/Info : Audio Coding 3Mode extension : CM (complete main)Format settings, Endianness : BigCodec ID : 2000Duration : 1h 24mnBit rate mode : ConstantBit rate : 448 KbpsChannel count : 6 channelsChannel positions : Front: L C R, Side: L R, LFESampling rate : 48.0 KHzBit depth : 16 bitsCompression mode : LossyStream size : 270 MiB (18%)Alignment : Split accross interleavesInterleave, duration : 40 ms (1.00 video frame)Interleave, preload duration : 500 ms
Audio #2ID : 2Format : AC-3Format/Info : Audio Coding 3Format profile : Dolby DigitalMode extension : CM (complete main)Format settings, Endianness : BigCodec ID : 2000Duration : 1h 24mnBit rate mode : ConstantBit rate : 192 KbpsChannel count : 2 channelsChannel positions : Front: L RSampling rate : 48.0 KHzBit depth : 16 bitsCompression mode : LossyStream size : 116 MiB (8%)Alignment : Split accross interleavesInterleave, duration : 40 ms (1.00 video frame)Interleave, preload duration : 500 ms

Сравнения

В принципе, они не нужны... размеры разные. Но все же...
http://rutracker.org/forum/viewtopic.php?t=19921
Сравнение
Спасибо Ibraghim за DVD5!Раздача от группы:

_________________
Показать сообщения:    

Текущее время: Сегодня 18:03

Часовой пояс: GMT



Вы не можете начинать темы
Вы не можете отвечать на сообщения
Вы не можете редактировать свои сообщения
Вы не можете удалять свои сообщения
Вы не можете голосовать в опросах
Вы не можете прикреплять файлы к сообщениям
Вы не можете скачивать файлы