Важное объявление!
У Нас Все раздачи мультитрекерные, при нуле пиров в релизах, можете смело вставать на закачку!
 
Автор Сообщение

HUNTER

Стаж:
4 года 4 месяца
Сообщений:
56808

Репутация: 101

[+] [-]
Вне форума [Профиль] [ЛС]

| Все релизы мультфильма || BDRip 1080p, 5.79 GB |- P R E S E N T SБарби: Жемчужная Принцесса / Barbie: The Pearl Princess-
Страна: США
Жанр: мультфильм, фэнтези, приключения
Продолжительность: 01:13:35
Год выпуска: 2013
Перевод: Профессиональный (полное дублирование)
Субтитры: англицкие (полные и для слабослышащих)-Режиссёр: Терри Классен / Terry Klassen
Роли озвучивали: Келли Шеридан, Кейт Кровн, Марк Оливер, Ребекка Шойчет, Патрисия Паттенден, Джон Новак, Саймон Хилл, Питер Нъю, Кетлин Барр, Патрик Гилмор, Луис Чирилло, Джеймс Хигучи, Маккензи Портер, Никки Бурк, Табита Ст. Герман, Брайан Дое, Джефф Эванс Тодд...- | | -Описание: Полнометражный мультфильм Barbie™ «Жемчужная принцесса» посвящен приключениям главной героини по имени Лумина. Она работает стилистом в салоне красоты, обладает способностью менять цвет жемчуга и даже не подозревает о том, что на самом деле является принцессой-русалкой. История полна захватывающих приключений, перевоплощений и неожиданных сюжетных поворотов...-Доп. информация: BDRip 1080p сделан с Blu-Ray диска Barbie: The Pearl Princess (2014) Blu-ray EUR 1080p AVC DTS 5.1-HDCLUB.-Сэмпл/Sample (79.9 MB, 1 минута)-Качество: BDRip 1080p
Формат: MKV
Видео: 1920x1080 (1.778:1), 23,976 fps, ~8989 kbps avg, 0.181 bit/pixel
Аудио #1: Русский, DTS / 5.1 / 48 kHz / 768 kbps / 24 bit - Дубляж | BD EUR
Аудио #3: English, DTS / 5.1 / 48 kHz / 1509 kbps / 16 bit - Original
Субтитры: Русские (форсированные), English (Full, SDH)
Навигация по главам: есть (12 не именованных глав)

MediaInfo / x264Log

x264Log

raw [info]: 1920x1080p 1:1 @ 24000/1001 fps (cfr)x264 [info]: using SAR=1/1x264 [info]: using cpu capabilities: MMX2 SSE2Fast SSSE3 SSE4.2 AVX XOP FMA4 FMA3 LZCNT BMI1x264 [info]: profile High, level 4.1x264 [info]: frame I:775 Avg QP:13.92 size:197059 PSNR Mean Y:50.85 U:51.93 V:52.02 Avg:51.12 Global:50.55x264 [info]: frame P:35666 Avg QP:15.82 size: 80993 PSNR Mean Y:49.73 U:51.21 V:51.34 Avg:50.11 Global:49.29x264 [info]: frame B:69423 Avg QP:18.97 size: 27656 PSNR Mean Y:48.89 U:50.71 V:50.86 Avg:49.33 Global:48.47x264 [info]: consecutive B-frames: 6.8% 17.4% 6.4% 62.4% 4.2% 1.5% 0.3% 0.7% 0.0% 0.0% 0.1% 0.3%x264 [info]: mb I I16..4: 7.7% 73.1% 19.3%x264 [info]: mb P I16..4: 3.4% 25.3% 4.2% P16..4: 26.3% 26.9% 6.7% 0.8% 0.0% skip: 6.4%x264 [info]: mb B I16..4: 0.8% 3.7% 0.4% B16..8: 35.4% 17.6% 2.5% direct: 6.0% skip:33.6% L0:43.8% L1:40.7% BI:15.5%x264 [info]: 8x8 transform intra:76.5% inter:66.5%x264 [info]: coded y,uvDC,uvAC intra: 67.6% 91.4% 78.0% inter: 17.7% 27.6% 8.3%x264 [info]: i16 v,h,dc,p: 32% 10% 5% 53%x264 [info]: i8 v,h,dc,ddl,ddr,vr,hd,vl,hu: 17% 13% 17% 7% 8% 9% 8% 10% 11%x264 [info]: i4 v,h,dc,ddl,ddr,vr,hd,vl,hu: 23% 12% 17% 5% 12% 10% 9% 6% 6%x264 [info]: i8c dc,h,v,p: 35% 21% 21% 23%x264 [info]: Weighted P-Frames: Y:1.1% UV:0.9%x264 [info]: ref P L0: 69.3% 11.3% 14.3% 4.8% 0.4% 0.0%x264 [info]: ref B L0: 93.8% 5.2% 1.0%x264 [info]: ref B L1: 97.3% 2.7%x264 [info]: SSIM Mean Y:0.9929205 (21.500db)x264 [info]: PSNR Mean Y:49.189 U:50.883 V:51.031 Avg:49.606 Global:48.740 kb/s:8989.16encoded 105864 frames, 4.01 fps, 8989.15 kb/s
GeneralUnique ID : 221130062138268392355986780239450818472 (0xA65C19CFD6EDEBE896CF05BD6C8347A8)Complete name : Barbie.The.Pearl.Princess.2014.BDRip.1080p.dfcbit.mkvFormat : MatroskaFormat version : Version 2File size : 5.79 GiBDuration : 1h 13mnOverall bit rate : 11.3 MbpsEncoded date : UTC 2014-02-17 02:55:35Writing application : mkvmerge v4.0.0 ('The Stars were mine') built on Jun 6 2010 16:18:42Writing library : libebml v1.0.0 + libmatroska v1.0.0
VideoID : 1Format : AVCFormat/Info : Advanced Video CodecFormat profile : High@L4.1Format settings, CABAC : YesFormat settings, ReFrames : 4 framesCodec ID : V_MPEG4/ISO/AVCDuration : 1h 13mnBit rate : 8 989 KbpsWidth : 1 920 pixelsHeight : 1 080 pixelsDisplay aspect ratio : 16:9Frame rate mode : ConstantFrame rate : 23.976 fpsColor space : YUVChroma subsampling : 4:2:0Bit depth : 8 bitsScan type : ProgressiveBits/(Pixel*Frame) : 0.181Stream size : 4.62 GiB (78%)Title : NTSC, 1920x1080 (1.778:1), BDRip 1080p - tRuAVC & Multfilmy [DFCbit]Writing library : x264 core 142 r2389kMod 956c8d8Encoding settings : cabac=1 / ref=4 / deblock=1:-2:-1 / analyse=0x3:0x133 / me=umh / subme=11 / psy=1 / fade_compensate=0.00 / psy_rd=0.63:0.00 / mixed_ref=1 / me_range=32 / chroma_me=1 / trellis=2 / 8x8dct=1 / cqm=0 / deadzone=21,11 / fast_pskip=0 / chroma_qp_offset=-2 / threads=12 / lookahead_threads=3 / sliced_threads=0 / nr=0 / decimate=1 / interlaced=0 / bluray_compat=0 / constrained_intra=0 / fgo=0 / bframes=11 / b_pyramid=2 / b_adapt=2 / b_bias=0 / direct=1 / weightb=1 / open_gop=0 / weightp=2 / keyint=250 / keyint_min=23 / scenecut=40 / intra_refresh=0 / rc_lookahead=70 / rc=crf / mbtree=0 / crf=17.9100 / qcomp=0.81 / qpmin=0 / qpmax=69 / qpstep=4 / vbv_maxrate=50000 / vbv_bufsize=62500 / crf_max=0.0 / nal_hrd=none / filler=0 / ip_ratio=1.40 / pb_ratio=1.30 / aq=3:0.90Language : EnglishDefault : YesForced : NoColor primaries : BT.709Transfer characteristics : BT.709Matrix coefficients : BT.709
Audio #1ID : 2Format : DTSFormat/Info : Digital Theater SystemsMode : 16Format settings, Endianness : BigCodec ID : A_DTSDuration : 1h 13mnBit rate mode : ConstantBit rate : 768 KbpsChannel(s) : 6 channelsChannel positions : Front: L C R, Side: L R, LFESampling rate : 48.0 KHzBit depth : 24 bitsCompression mode : LossyStream size : 404 MiB (7%)Title : DTS / 5.1 / 48 kHz / 768 kbps / 24 bit - Дубляж | BD EURLanguage : RussianDefault : YesForced : No
Audio #2ID : 3Format : DTSFormat/Info : Digital Theater SystemsMode : 16Format settings, Endianness : BigCodec ID : A_DTSDuration : 1h 13mnBit rate mode : ConstantBit rate : 1 509 KbpsChannel(s) : 6 channelsChannel positions : Front: L C R, Side: L R, LFESampling rate : 48.0 KHzBit depth : 16 bitsCompression mode : LossyStream size : 794 MiB (13%)Title : DTS / 5.1 / 48 kHz / 1509 kbps / 16 bit - OriginalLanguage : EnglishDefault : NoForced : No
Text #1ID : 4Format : UTF-8Codec ID : S_TEXT/UTF8Codec ID/Info : UTF-8 Plain TextTitle : SRT, ForcedLanguage : RussianDefault : NoForced : No
Text #2ID : 5Format : UTF-8Codec ID : S_TEXT/UTF8Codec ID/Info : UTF-8 Plain TextTitle : SRT, FullLanguage : EnglishDefault : NoForced : No
Text #3ID : 6Format : UTF-8Codec ID : S_TEXT/UTF8Codec ID/Info : UTF-8 Plain TextTitle : SRT, (SDH)Language : EnglishDefault : NoForced : No
Menu00:00:00.000 : en:Chapter 100:07:42.879 : en:Chapter 200:14:55.686 : en:Chapter 300:21:46.388 : en:Chapter 400:28:38.383 : en:Chapter 500:35:36.885 : en:Chapter 600:42:18.745 : en:Chapter 700:44:31.419 : en:Chapter 800:49:25.337 : en:Chapter 900:55:03.050 : en:Chapter 1000:59:48.418 : en:Chapter 1101:08:15.633 : en:Chapter 12

Скриншоты

Скриншот с названием мультфильма
--BDRip 1080p


Source Blu-Ray

Релиз от групп | and | -Данный релиз не будет воспроизводиться на бытовых плеерах не поддерживающих MKV и H.264Обсуждение релизов в AVC формате || Свежие AVC рипы

_________________
Показать сообщения:    

Текущее время: Сегодня 14:25

Часовой пояс: GMT



Вы не можете начинать темы
Вы не можете отвечать на сообщения
Вы не можете редактировать свои сообщения
Вы не можете удалять свои сообщения
Вы не можете голосовать в опросах
Вы не можете прикреплять файлы к сообщениям
Вы не можете скачивать файлы