Важное объявление!
У Нас Все раздачи мультитрекерные, при нуле пиров в релизах, можете смело вставать на закачку!
 
Автор Сообщение

HUNTER

Стаж:
4 года 4 месяца
Сообщений:
56829

Репутация: 101

[+] [-]
Вне форума [Профиль] [ЛС]

Банда защитников / Vigilante Force
Страна: США
Студия: Chateau Productions
Жанр: боевик, драма, криминал, приключения
Год выпуска: 1976
Продолжительность: 01:29:23
Перевод: Профессиональный (двухголосый закадровый) НТВ+
Cубтитры:английские
Оригинальная аудиодорожка: английский
Режиссер: Джордж Эрмитаж / George Armitage
В ролях: Крис Кристофферсон, Ян-Майкл Винсент, Виктория Принсипал, Бернадетт Питерс, Брэд Декстер, Джадсон Прэтт, Дэвид Дойл, Энтони Кэрбон, Эндрю Стивенс, Шелли Новак
Описание: Аарон Арнольд - ветеран войны во Вьетнаме, который соглашается помочь брату очистить маленький городок от криминала. Аарон принимается за дело, зачастую используя при этом методы своих противников...
Кинопоиск
Sample
Тип релиза: BDRemux 1080p
Контейнер: MKV
Видео: MPEG4 AVC Video, H264, 16:9, 1920x1080, 23.976 fps, 24700 Kbps
Аудио: Russian (AC3, 2 ch, 192 kbps, 16 bits, 48.0 KHz) - DVO
Аудио 2: English (DTS-HD MA, 2 ch, 1642 kbps, 16 bits, 48.0 KHz / DTS core: 2 ch, 1509 kbps, 16 bits, 48.0 KHz) - оригинал
Аудио 3: English (AC3, 2 ch, 256 kbps, 16 bits, 48.0 KHz) - комментарии
Формат субтитров: softsub (SRT)

MediaInfo

General
Unique ID : 212947220503623690387543221274148968874 (0xA034249217B41941A5251C4AA68199AA)
Complete name : K:\Vigilante Force 1976 BDRemux 1080p.mkv
Format : Matroska
Format version : Version 4 / Version 2
File size : 16.8 GiB
Duration : 1h 29mn
Overall bit rate mode : Variable
Overall bit rate : 26.8 Mbps
Encoded date : UTC 2016-03-17 07:33:57
Writing application : mkvmerge v6.1.0 ('Old Devil') built on Mar 2 2013 14:32:37
Writing library : libebml v1.3.0 + libmatroska v1.4.0
Video
ID : 1
Format : AVC
Format/Info : Advanced Video Codec
Format profile : High@L4.1
Format settings, CABAC : Yes
Format settings, ReFrames : 4 frames
Codec ID : V_MPEG4/ISO/AVC
Duration : 1h 29mn
Bit rate mode : Variable
Maximum bit rate : 35.0 Mbps
Width : 1 920 pixels
Height : 1 080 pixels
Display aspect ratio : 16:9
Frame rate mode : Constant
Frame rate : 23.976 fps
Standard : NTSC
Color space : YUV
Chroma subsampling : 4:2:0
Bit depth : 8 bits
Scan type : Progressive
Language : English
Default : Yes
Forced : No
Color primaries : BT.709
Transfer characteristics : BT.709
Matrix coefficients : BT.709
Audio #1
ID : 2
Format : AC-3
Format/Info : Audio Coding 3
Mode extension : CM (complete main)
Format settings, Endianness : Big
Codec ID : A_AC3
Duration : 1h 29mn
Bit rate mode : Constant
Bit rate : 192 Kbps
Channel count : 2 channels
Channel positions : Front: L R
Sampling rate : 48.0 KHz
Bit depth : 16 bits
Compression mode : Lossy
Stream size : 123 MiB (1%)
Language : Russian
Default : Yes
Forced : No
Audio #2
ID : 3
Format : DTS
Format/Info : Digital Theater Systems
Format profile : MA / Core
Mode : 16
Format settings, Endianness : Big
Codec ID : A_DTS
Duration : 1h 29mn
Bit rate mode : Variable
Bit rate : Unknown / 1 509 Kbps
Channel count : 2 channels
Channel positions : Front: L R
Sampling rate : 48.0 KHz
Bit depth : 16 bits
Compression mode : Lossless / Lossy
Language : English
Default : No
Forced : No
Audio #3
ID : 4
Format : AC-3
Format/Info : Audio Coding 3
Mode extension : CM (complete main)
Format settings, Endianness : Big
Codec ID : A_AC3
Duration : 1h 29mn
Bit rate mode : Constant
Bit rate : 256 Kbps
Channel count : 2 channels
Channel positions : Front: L R
Sampling rate : 48.0 KHz
Bit depth : 16 bits
Compression mode : Lossy
Stream size : 164 MiB (1%)
Title : commentary
Language : English
Default : No
Forced : No
Text
ID : 5
Format : UTF-8
Codec ID : S_TEXT/UTF8
Codec ID/Info : UTF-8 Plain Text
Language : English
Default : No
Forced : No
Menu
00:00:00.000 : en:00:00:00.000
00:08:26.797 : en:00:08:26.797
00:18:19.556 : en:00:18:19.556
00:28:28.038 : en:00:28:28.038
00:40:54.702 : en:00:40:54.702
00:53:08.684 : en:00:53:08.684
01:06:24.896 : en:01:06:24.896
01:16:17.738 : en:01:16:17.738

Скриншоты


_________________
Показать сообщения:    

Текущее время: Сегодня 16:27

Часовой пояс: GMT



Вы не можете начинать темы
Вы не можете отвечать на сообщения
Вы не можете редактировать свои сообщения
Вы не можете удалять свои сообщения
Вы не можете голосовать в опросах
Вы не можете прикреплять файлы к сообщениям
Вы не можете скачивать файлы