Важное объявление!
У Нас Все раздачи мультитрекерные, при нуле пиров в релизах, можете смело вставать на закачку!
 
Автор Сообщение

HUNTER

Стаж:
4 года 4 месяца
Сообщений:
56839

Репутация: 101

[+] [-]
Вне форума [Профиль] [ЛС]

Багс и Дафи Мульты военного времени / Bugs & Daffy: The Wartime Cartoons
Страна: США
Жанр: мультфильм, комедия, военный
Продолжительность: 1:27:21
Год выпуска: 1989
Перевод: Авторский (одноголосый закадровый) [Дохаловоподобный+Ошурков]
Русские субтитры: нет
http://www.kinopoisk.ru/film/840966/
http://www.amazon.com/Bugs-Daffy-The-Wartime-Cartoons/dp/6301967305
Режиссёр: Chuck Jones, Bob Clampett, Friz Freleng, Frank Tashlin
Роли озвучивали: Мэл Бланк, Билли Блэтчер, Леонард Малтин, Би Бенадерет, Ричард Бикенбах, Роберт С. Брюс
Описание: Сборник мультфильмов 1943—45 годов. Все мультфильмы входят в состав сериалов Looney Tunes и Merrie Melodies, их объединяют два главных героя, Багз Банни и Даффи Дак, и основная тема: Вторая мировая война.
Доп. информация: исх. http://rutracker.org/forum/viewtopic.php?t=3877531 спасибо RoxMarty и всем причастным
Качество: VHSRip
Формат: AVI
Видео: XviD 688x512 4:3 2000 25,00 0.23
Аудио 1: Rus AC3 CBR 48,0 256 2.0 [Дохаловоподобный+Ошурков]
Аудио 2: Eng MP3 CBR 48,0 128 2.0 Original
Субтитры: отсутствуют

Содержание

The Fifth-Column Mouse (1943)
Super-Rabbit (1943)
Falling Hare (1943)
Daffy – The Commando (1943)
Little Red Riding Rabbit (1944)
The Weakly Reporter (1944)
Swooner Crooner (1944)
Russian Rhapsody (1944)
Plane Daffy (1944)
Herr Meets Hare (1945)
Draftee Daffy (1945)

Подробные технические данные

Формат : AVIФормат/Информация : Audio Video InterleaveРазмер файла : 1,46 ГбайтПродолжительность : 1 ч. 27 м.Общий поток : 2399 Кбит/секПрограмма кодирования : VirtualDubMod 1.5.10.2 (build 2540/release)Библиотека кодирования : VirtualDubMod build 2540/release
ВидеоИдентификатор : 0Формат : MPEG-4 VisualПрофиль формата : Advanced Simple@L5Параметр BVOP формата : 2Параметр QPel формата : НетПараметр GMC формата : Без точки переходаПараметр матрицы формата : Default (H.263)Идентификатор кодека : XVIDИдентификатор кодека/Подсказка : XviDПродолжительность : 1 ч. 27 м.Битрейт : 2000 Кбит/секШирина : 688 пикселейВысота : 512 пикселейСоотношение сторон : 4:3Частота кадров : 25,000 кадров/секЦветовое пространство : YUVСубдискретизация насыщенности : 4:2:0Битовая глубина : 8 битТип развёртки : ПрогрессивнаяМетод сжатия : С потерямиБит/(Пиксели*Кадры) : 0.227Размер потока : 1,22 Гбайт (83%)Библиотека кодирования : XviD 1.2.1 (UTC 2008-12-04)
Аудио #1Идентификатор : 1Формат : AC-3Формат/Информация : Audio Coding 3Расширение режима : CM (complete main)Параметр Endianness формата : BigИдентификатор кодека : 2000Продолжительность : 1 ч. 27 м.Вид битрейта : ПостоянныйБитрейт : 256 Кбит/секКаналы : 2 каналаРасположение каналов : Front: L RЧастота : 48,0 КГцБитовая глубина : 16 битМетод сжатия : С потерямиРазмер потока : 160 Мбайт (11%)Выравнивание : Разделение по промежуткамПродолжительность промежутка : 40 мс. (1,00 видеокадр)Время предзагрузки промежутка : 500 мс.
Аудио #2Идентификатор : 2Формат : MPEG AudioВерсия формата : Version 1Профиль формата : Layer 3Режим : Joint stereoРасширение режима : MS StereoИдентификатор кодека : 55Идентификатор кодека/Подсказка : MP3Продолжительность : 1 ч. 27 м.Вид битрейта : ПостоянныйБитрейт : 128 Кбит/секКаналы : 2 каналаЧастота : 48,0 КГцМетод сжатия : С потерямиРазмер потока : 80,0 Мбайт (5%)Выравнивание : Соединение по промежуткамПродолжительность промежутка : 40 мс. (1,00 видеокадр)Время предзагрузки промежутка : 504 мс.

_________________
Показать сообщения:    

Текущее время: Сегодня 02:50

Часовой пояс: GMT



Вы не можете начинать темы
Вы не можете отвечать на сообщения
Вы не можете редактировать свои сообщения
Вы не можете удалять свои сообщения
Вы не можете голосовать в опросах
Вы не можете прикреплять файлы к сообщениям
Вы не можете скачивать файлы