Важное объявление!
У Нас Все раздачи мультитрекерные, при нуле пиров в релизах, можете смело вставать на закачку!
 
Автор Сообщение

HUNTER

Стаж:
4 года 4 месяца
Сообщений:
56829

Репутация: 101

[+] [-]
Вне форума [Профиль] [ЛС]

-Багровый пик / Crimson Peak-
Страна: США, Канада
Жанр: ужасы, фэнтези, триллер
Год выпуска: 2015
Продолжительность: 01:58:44
Перевод: Профессиональный (дублированный)
Оригинальная аудиодорожка: английская-Режиссер: Гильермо дель Торо / Guillermo del Toro
В ролях: Миа Васиковска, Джессика Честейн, Том Хиддлстон, Чарли Ханнэм, Джим Бивер, Берн Горман, Лесли Хоуп, Даг Джонс, Джонатан Хайд, Брюс Грэй-Описание: Дурная слава преследует дом, что возвышается над городом. С приходом зимы он утопает в кровавых снегах. Говорят, дело в глине, проступающей на поверхность. Но ни единая душа не рискует ступить на ледяной склон… кроме нее. Она влюблена в таинственного незнакомца, живущего в древних стенах со своей сестрой. Багровый пик пробудился и уже не уснет.- -Сэмпл: https://yadi.sk/i/u70Vh-bjpNbbq-Тип релиза: BDRip 720p (CLiQUE)
Контейнер: MKV
Исходник: Crimson Peak 2015 1080p Blu-ray AVC DTS-HD MA 7.1-CBGB
Видео: x264, 1280x692 (1.85:1), ~6812 kbps at 23.976 fps
Аудио#1: DTS Audio Russian 5.1 / 48 kHz / 768 kbps / 24-bit - Дублированный
Аудио#2: DTS Audio English 5.1 / 48 kHz / 1509 kbps / 24-bit
Аудио#3: Dolby Digital Audio English 2.0 / 48 kHz / 192 kbps - Feature Commentary with Co-Writer/Director Guillermo del Toro
Cубтитры: Русские (форсированные, полные), English (non-SDH, SDH)

mi

Format : MatroskaFormat version : Version 4 / Version 2File size : 7.70 GiBDuration : 1h 58mnOverall bit rate : 9 286 KbpsMovie name : Crimson Peak 2015Encoded date : UTC 2016-02-23 17:57:32Writing application : mkvmerge v8.8.0 ('Wind at my back') 64bitWriting library : libebml v1.3.3 + libmatroska v1.4.4
VideoID : 1Format : AVCFormat/Info : Advanced Video CodecFormat profile : High@L4.1Format settings, CABAC : YesFormat settings, ReFrames : 9 framesCodec ID : V_MPEG4/ISO/AVCDuration : 1h 58mnBit rate : 6 813 KbpsWidth : 1 280 pixelsHeight : 692 pixelsDisplay aspect ratio : 1.85:1Frame rate mode : ConstantFrame rate : 23.976 (24000/1001) fpsColor space : YUVChroma subsampling : 4:2:0Bit depth : 8 bitsScan type : ProgressiveBits/(Pixel*Frame) : 0.321Stream size : 5.65 GiB (73%)Title : Crimson Peak by CLiQUEWriting library : x264 core 148 r2665kMod a01e339Encoding settings : cabac=1 / ref=9 / deblock=1:-3:-3 / analyse=0x3:0x133 / me=umh / subme=11 / psy=1 / fade_compensate=0.00 / psy_rd=1.00:0.00 / mixed_ref=1 / me_range=32 / chroma_me=1 / trellis=2 / 8x8dct=1 / cqm=0 / deadzone=21,11 / fast_pskip=0 / chroma_qp_offset=-2 / threads=12 / lookahead_threads=2 / sliced_threads=0 / nr=0 / decimate=0 / interlaced=0 / bluray_compat=0 / constrained_intra=0 / fgo=0 / bframes=9 / b_pyramid=2 / b_adapt=2 / b_bias=0 / direct=3 / weightb=1 / open_gop=0 / weightp=2 / keyint=250 / keyint_min=23 / scenecut=40 / intra_refresh=0 / rc_lookahead=60 / rc=crf / mbtree=0 / crf=17.0000 / qcomp=0.65 / qpmin=0 / qpmax=69 / qpstep=4 / vbv_maxrate=62500 / vbv_bufsize=78125 / crf_max=0.0 / nal_hrd=none / filler=0 / ip_ratio=1.25 / pb_ratio=1.15 / aq=1:0.80Language : EnglishDefault : YesForced : No
Audio #1ID : 2Format : DTSFormat/Info : Digital Theater SystemsMode : 16Format settings, Endianness : BigCodec ID : A_DTSDuration : 1h 58mnBit rate mode : ConstantBit rate : 768 KbpsChannel(s) : 6 channelsChannel positions : Front: L C R, Side: L R, LFESampling rate : 48.0 KHzFrame rate : 93.750 fps (512 spf)Bit depth : 24 bitsCompression mode : LossyStream size : 652 MiB (8%)Title : ДублированныйLanguage : RussianDefault : YesForced : No
Audio #2ID : 3Format : DTSFormat/Info : Digital Theater SystemsMode : 16Format settings, Endianness : BigCodec ID : A_DTSDuration : 1h 58mnBit rate mode : ConstantBit rate : 1 509 KbpsChannel(s) : 6 channelsChannel positions : Front: L C R, Side: L R, LFESampling rate : 48.0 KHzFrame rate : 93.750 fps (512 spf)Bit depth : 24 bitsCompression mode : LossyStream size : 1.25 GiB (16%)Language : EnglishDefault : NoForced : No
Audio #3ID : 4Format : AC-3Format/Info : Audio Coding 3Format profile : Dolby DigitalMode extension : CM (complete main)Format settings, Endianness : BigCodec ID : A_AC3Duration : 1h 58mnBit rate mode : ConstantBit rate : 192 KbpsChannel(s) : 2 channelsChannel positions : Front: L RSampling rate : 48.0 KHzFrame rate : 31.250 fps (1536 spf)Compression mode : LossyStream size : 163 MiB (2%)Title : Feature Commentary with Co-Writer/Director Guillermo del ToroLanguage : EnglishDefault : NoForced : No
Text #1ID : 5Format : UTF-8Codec ID : S_TEXT/UTF8Codec ID/Info : UTF-8 Plain TextDuration : 1h 57mnBit rate : 75 bpsCount of elements : 1353Stream size : 64.9 KiB (0%)Language : RussianDefault : NoForced : No
Text #2ID : 6Format : UTF-8Codec ID : S_TEXT/UTF8Codec ID/Info : UTF-8 Plain TextDuration : 1h 54mnBit rate : 1 bpsCount of elements : 24Stream size : 997 Bytes (0%)Title : ForcedLanguage : RussianDefault : YesForced : Yes
Text #3ID : 7Format : UTF-8Codec ID : S_TEXT/UTF8Codec ID/Info : UTF-8 Plain TextDuration : 1h 50mnBit rate : 48 bpsCount of elements : 1364Stream size : 38.8 KiB (0%)Language : EnglishDefault : NoForced : No
Text #4ID : 8Format : UTF-8Codec ID : S_TEXT/UTF8Codec ID/Info : UTF-8 Plain TextDuration : 1h 50mnBit rate : 51 bpsCount of elements : 1527Stream size : 41.6 KiB (0%)Title : SDHLanguage : EnglishDefault : NoForced : No
Menu00:00:00.000 : en:00:00:00.00000:06:02.529 : en:00:06:02.52900:11:01.202 : en:00:11:01.20200:15:29.720 : en:00:15:29.72000:21:13.105 : en:00:21:13.10500:25:52.926 : en:00:25:52.92600:31:14.664 : en:00:31:14.66400:39:26.823 : en:00:39:26.82300:45:40.613 : en:00:45:40.61300:51:57.031 : en:00:51:57.03100:56:11.577 : en:00:56:11.57701:02:05.096 : en:01:02:05.09601:08:19.929 : en:01:08:19.92901:14:24.835 : en:01:14:24.83501:20:19.106 : en:01:20:19.10601:25:54.149 : en:01:25:54.14901:30:38.892 : en:01:30:38.89201:36:09.639 : en:01:36:09.63901:43:21.070 : en:01:43:21.07001:51:24.136 : en:01:51:24.136

x264

Код:
x264 [info]: frame I:1358  Avg QP:14.46  size:131719
x264 [info]: frame P:35888 Avg QP:15.84  size: 57366
x264 [info]: frame B:133553 Avg QP:17.25  size: 28670
x264 [info]: consecutive B-frames:  2.0%  1.7%  6.7% 16.9% 17.2% 48.1%  4.4%  2.0%  0.4%  0.4%

source vs CLiQUE vs EPiC





**Для корректного сравнения в рипе EPiC было добавлено по 1 пикселю сверху и снизу.

_________________
Показать сообщения:    

Текущее время: Сегодня 12:13

Часовой пояс: GMT



Вы не можете начинать темы
Вы не можете отвечать на сообщения
Вы не можете редактировать свои сообщения
Вы не можете удалять свои сообщения
Вы не можете голосовать в опросах
Вы не можете прикреплять файлы к сообщениям
Вы не можете скачивать файлы