Важное объявление!
У Нас Все раздачи мультитрекерные, при нуле пиров в релизах, можете смело вставать на закачку!
 
Автор Сообщение

HUNTER

Стаж:
4 года 4 месяца
Сообщений:
56839

Репутация: 101

[+] [-]
Вне форума [Профиль] [ЛС]

Барашек Шон
Shaun the Sheep Movie
«Бе-е-е-ежим в кино!»
Год выпуска: 2015
Страна: Великобритания, Франция
Жанр: мультфильм, комедия, приключения, семейный
Продолжительность: 01:21:33
Перевод: не требуется
субтитры: отсутствуют-Режиссёр: Марк Бертон : Mark Burton
В ролях: Джастин Флетчер, Джон Шпаркс, Омид Джалили, Ричард Веббер, Кейт Харбор, Тим Хэндс, Энди Найман, Саймон Гринхолл, Эмма Тейт, Джек Полсон-Описание: Мирная жизнь маленькой овцефермы оказывается под угрозой, когда в результате очередной проказы неутомимого Барашка Шона хозяин фермы попадает в большой город. Вдоволь навеселившись полной свободой и безнаказанностью, Шон и остальное стадо барашков начинают волноваться за Фермера и решают отправиться на его спасение. Замаскировавшись под людей, они едут в большой город, где их ждет самое весёлое и эпическое приключение всей жизни.- раздача от: -Качество: WEB-DL 720р
Формат: MKV
Видео кодек: AVC
Аудио кодек: AC3
Видео: 960x690@1280x690, 25 fps, ~3983 kbps avg, 0.240 bit/pixel
Аудио: 48 kHz, AC3 Dolby Digital, 3/2 (L,C,R,l,r) + LFE ch, ~384 kbps
навигация по главам: 20 глав (не именных)

Локализованный видеоряд

MediaInfo

Общее
Уникальный идентификатор : 193365233477720894898231680799021339163 (0x9178CA11E9806238BD0263FD867A121B)
Полное имя : D:\Im\Барашек Шон\Shaun the Sheep Movie.2015.WEB-DL.720p.mkv
Формат : Matroska
Версия формата : Version 4 / Version 2
Размер файла : 2,54 Гбайт
Продолжительность : 1 ч. 21 м.
Общий поток : 4455 Кбит/сек
Дата кодирования : UTC 2015-04-29 21:03:36
Программа кодирования : mkvmerge v6.9.1 ('Blue Panther') 64bit built on Apr 18 2014 18:23:38
Библиотека кодирования : libebml v1.3.0 + libmatroska v1.4.1
Видео
Идентификатор : 1
Формат : AVC
Формат/Информация : Advanced Video Codec
Профиль формата : Main@L3.1
Параметр CABAC формата : Нет
Параметр ReFrames формата : 2 кадра
Идентификатор кодека : V_MPEG4/ISO/AVC
Продолжительность : 1 ч. 21 м.
Битрейт : 3983 Кбит/сек
Ширина : 960 пикселей
Высота : 690 пикселей
Соотношение сторон : 1,855
Частота кадров : 25,000 кадров/сек
Цветовое пространство : YUV
Субдискретизация насыщенности : 4:2:0
Битовая глубина : 8 бит
Тип развёртки : Прогрессивная
Бит/(Пиксели*Кадры) : 0.240
Размер потока : 2,27 Гбайт (89%)
Язык : English
Default : Да
Forced : Нет
Основные цвета : BT.709-5, BT.1361, IEC 61966-2-4, SMPTE RP177
Характеристики трансфера : BT.709-5, BT.1361
Коэффициенты матрицы : BT.709-5, BT.1361, IEC 61966-2-4 709, SMPTE RP177
Аудио
Идентификатор : 2
Формат : AC-3
Формат/Информация : Audio Coding 3
Расширение режима : CM (complete main)
Идентификатор кодека : A_AC3
Продолжительность : 1 ч. 21 м.
Вид битрейта : Постоянный
Битрейт : 384 Кбит/сек
Каналы : 6 каналов
Расположение каналов : Front: L C R, Side: L R, LFE
Частота : 48,0 КГц
Битовая глубина : 16 бит
Метод сжатия : С потерями
Размер потока : 224 Мбайт (9%)
Язык : Russian
Default : Да
Forced : Нет
Меню
00:00:00.000 : en:Глава 1
00:02:08.000 : en:Глава 2
00:05:36.000 : en:Глава 3
00:09:06.000 : en:Глава 4
00:13:18.000 : en:Глава 5
00:16:53.000 : en:Глава 6
00:20:10.000 : en:Глава 7
00:24:53.000 : en:Глава 8
00:27:29.000 : en:Глава 9
00:30:50.000 : en:Глава 10
00:35:38.000 : en:Глава 11
00:38:29.000 : en:Глава 12
00:42:46.000 : en:Глава 13
00:47:39.000 : en:Глава 14
00:52:27.000 : en:Глава 15
00:56:54.000 : en:Глава 16
01:00:54.000 : en:Глава 17
01:05:25.000 : en:Глава 18
01:08:47.000 : en:Глава 19
01:12:37.000 : en:Глава 20
____________________________________________
Стою на раздаче до 5 дней.
Просьба скачавшим как можно дольше не покидать раздачу!
ВСЕМ ПРИЯТНОГО ПРОСМОТРА!_________________________________________

_________________
Показать сообщения:    

Текущее время: Сегодня 22:42

Часовой пояс: GMT



Вы не можете начинать темы
Вы не можете отвечать на сообщения
Вы не можете редактировать свои сообщения
Вы не можете удалять свои сообщения
Вы не можете голосовать в опросах
Вы не можете прикреплять файлы к сообщениям
Вы не можете скачивать файлы