Важное объявление!
У Нас Все раздачи мультитрекерные, при нуле пиров в релизах, можете смело вставать на закачку!
 
Автор Сообщение

HUNTER

Стаж:
4 года 4 месяца
Сообщений:
56733

Репутация: 101

[+] [-]
Вне форума [Профиль] [ЛС]


Барашек Шон | Shaun the Sheep Movie
«Бе-е-е-ежим в кино!»
Локализованный видеоряд
-
Страна: Великобритания, Франция
Жанр: Комедия, приключения, семейный
Продолжительность: 01:25:00
Год выпуска: 2015
Перевод: Не требуется
Русские субтитры: нет
Режиссёр: Марк Бертон / Mark Burton
Роли озвучивали: Джастин Флетчер, Джон Шпаркс, Омид Джалили, Ричард Веббер, Кейт Харбор, Тим Хэндс, Энди Найман, Саймон Гринхолл, Эмма Тейт, Джек Полсон-ОписаниеМирная жизнь маленькой овцефермы оказывается под угрозой, когда в результате очередной проказы неутомимого Барашка Шона хозяин фермы попадает в большой город. Вдоволь навеселившись полной свободой и безнаказанностью, Шон и остальное стадо барашков начинают волноваться за Фермера и решают отправиться на его спасение. Замаскировавшись под людей, они едут в большой город, где их ждет самое весёлое и эпическое приключение всей жизни.-
«Бара́шек Шон» (Shaun the Sheep Movie) — британский полнометражный мультфильм «Aardman Animations» о барашке Шоне, герое одноимённого мультсериала. Также является спин-оффом другой серии фильмов Aardman «Уоллес и Громит», где впервые был задействован персонаж Шона. Мультфильм создан с помощью соединения пластилиновой и компьютерной анимации.
Релиз:

Сэмпл

IMDb: 7.50 (5249)
Качество: BDRip 720p SHAUN_THE_SHEEP_MOVIE_HDCLUB Локализованный видеоряд
Формат: MKV
Видео: AVC 3423 Kbps 1280 x 694 (1.844) 24.000 fps
Аудио: AC-3 640 Kbps 6 channels, 48.0 KHz Rus

MI | Log

Log
x264 [info]: frame I:1407 Avg QP:13.16 size:147054
x264 [info]: frame P:33087 Avg QP:14.93 size: 38199
x264 [info]: frame B:87923 Avg QP:15.81 size: 8679
x264 [info]: consecutive B-frames: 3.3% 6.2% 10.7% 55.0% 15.4% 6.3% 1.1% 0.5% 0.4% 0.2% 0.9%
x264 [info]: mb I I16..4: 8.2% 70.2% 21.5%
x264 [info]: mb P I16..4: 1.2% 12.2% 2.7% P16..4: 30.5% 25.6% 12.3% 2.5% 0.4% skip:12.5%
x264 [info]: mb B I16..4: 0.3% 1.7% 0.4% B16..8: 25.0% 12.2% 2.4% direct: 4.0% skip:54.1% L0:43.4% L1:47.9% BI: 8.7%
x264 [info]: 8x8 transform intra:74.1% inter:50.9%
x264 [info]: direct mvs spatial:100.0% temporal:0.0%
x264 [info]: coded y,uvDC,uvAC intra: 80.2% 84.8% 74.6% inter: 14.4% 19.1% 7.8%
x264 [info]: i16 v,h,dc,p: 37% 16% 9% 38%
x264 [info]: i8 v,h,dc,ddl,ddr,vr,hd,vl,hu: 14% 13% 15% 8% 9% 9% 10% 10% 13%
x264 [info]: i4 v,h,dc,ddl,ddr,vr,hd,vl,hu: 20% 13% 13% 7% 11% 9% 10% 8% 10%
x264 [info]: i8c dc,h,v,p: 44% 26% 18% 12%
x264 [info]: Weighted P-Frames: Y:4.0% UV:2.3%
x264 [info]: ref P L0: 49.1% 8.1% 18.0% 6.9% 5.7% 4.6% 3.4% 1.9% 1.9% 0.4% 0.0%
x264 [info]: ref B L0: 69.3% 12.1% 9.2% 3.1% 2.6% 1.8% 1.2% 0.6%
x264 [info]: ref B L1: 94.0% 6.0%
x264 [info]: kb/s:3503.68
x264 [total]: encoded 122417 frames, 8.39 fps, 3503.69 kb/s, duration 4:03:09.45
Format : Matroska
Format version : Version 4 / Version 2
File size : 2.46 GiB
Duration : 1h 25mn
Overall bit rate : 4 145 Kbps
Encoded date : UTC 2015-06-07 16:56:20
Writing application : mkvmerge v6.7.0 ('Back to the Ground') 32bit built on Jan 8 2014 15:03:17
Writing library : libebml v1.3.0 + libmatroska v1.4.1
Video
ID : 1
Format : AVC
Format/Info : Advanced Video Codec
Format profile : High@L4.1
Format settings, CABAC : Yes
Format settings, ReFrames : 9 frames
Codec ID : V_MPEG4/ISO/AVC
Duration : 1h 25mn
Bit rate : 3 423 Kbps
Width : 1 280 pixels
Height : 694 pixels
Display aspect ratio : 1.85:1
Frame rate mode : Constant
Frame rate : 24.000 fps
Color space : YUV
Chroma subsampling : 4:2:0
Bit depth : 8 bits
Scan type : Progressive
Bits/(Pixel*Frame) : 0.161
Stream size : 2.03 GiB (83%)
Title : Shaun the Sheep Movie (2015) [rutracker.org]
Writing library : x264 core 146 r2538kMod 121396c
Encoding settings : cabac=1 / ref=9 / deblock=1:-3:-2 / analyse=0x3:0x133 / me=umh / subme=11 / psy=1 / fade_compensate=0.00 / psy_rd=1.00:0.05 / mixed_ref=1 / me_range=32 / chroma_me=1 / trellis=2 / 8x8dct=1 / cqm=0 / deadzone=21,11 / fast_pskip=0 / chroma_qp_offset=-3 / threads=12 / lookahead_threads=3 / sliced_threads=0 / nr=0 / decimate=1 / interlaced=0 / bluray_compat=0 / constrained_intra=0 / fgo=0 / bframes=10 / b_pyramid=2 / b_adapt=2 / b_bias=0 / direct=3 / weightb=1 / open_gop=0 / weightp=2 / keyint=250 / keyint_min=23 / scenecut=40 / intra_refresh=0 / rc_lookahead=80 / rc=crf / mbtree=0 / crf=17.0000 / qcomp=0.60 / qpmin=0 / qpmax=69 / qpstep=4 / vbv_maxrate=50000 / vbv_bufsize=62500 / crf_max=0.0 / nal_hrd=none / filler=0 / ip_ratio=1.40 / pb_ratio=1.30 / aq=3:0.90
Language : Russian
Default : Yes
Forced : No
Audio
ID : 2
Format : AC-3
Format/Info : Audio Coding 3
Mode extension : CM (complete main)
Format settings, Endianness : Big
Codec ID : A_AC3
Duration : 1h 25mn
Bit rate mode : Constant
Bit rate : 640 Kbps
Channel(s) : 6 channels
Channel positions : Front: L C R, Side: L R, LFE
Sampling rate : 48.0 KHz
Bit depth : 16 bits
Compression mode : Lossy
Stream size : 389 MiB (15%)
Language : Russian
Default : Yes
Forced : No
Menu
00:00:00.000 : en:00:00:00.000
00:05:01.708 : en:00:05:01.708
00:10:59.083 : en:00:10:59.083
00:19:31.375 : en:00:19:31.375
00:29:19.667 : en:00:29:19.667
00:40:05.750 : en:00:40:05.750
00:45:34.500 : en:00:45:34.500
00:49:38.167 : en:00:49:38.167
00:55:30.083 : en:00:55:30.083
00:59:39.000 : en:00:59:39.000
01:08:12.583 : en:01:08:12.583
01:15:39.458 : en:01:15:39.458

Скриншоты





_________________
Показать сообщения:    

Текущее время: Сегодня 02:35

Часовой пояс: GMT



Вы не можете начинать темы
Вы не можете отвечать на сообщения
Вы не можете редактировать свои сообщения
Вы не можете удалять свои сообщения
Вы не можете голосовать в опросах
Вы не можете прикреплять файлы к сообщениям
Вы не можете скачивать файлы