Важное объявление!
У Нас Все раздачи мультитрекерные, при нуле пиров в релизах, можете смело вставать на закачку!
 
Автор Сообщение

HUNTER

Стаж:
4 года 4 месяца
Сообщений:
56829

Репутация: 101

[+] [-]
Вне форума [Профиль] [ЛС]

Аэропорт / Airport
Страна: США
Жанр: триллер, драма
Год выпуска: 1970
Продолжительность: 02:16:35
Перевод: Профессиональный (многоголосый закадровый) | SomeWax
Cубтитры: русские, английские
Оригинальная аудиодорожка: английский
Режиссер: Джордж Ситон
Сценарий: Артур Хейли, Джордж Ситон
В ролях: Берт Ланкастер, Дин Мартин, Джин Сиберг, Жаклин Биссет, Джордж Кеннеди, Хелен Хэйес, Ван Хефлин, Морин Стейплтон, Бэрри Нельсон, Дана Уинтер
Описание: Похоже, что начальнику Международного аэропорта им. Линкольна Мэлу Бейкерсфелду и всей его команде выпал тяжелый денек, - необходимо любой ценой поддерживать работу аэропорта в условиях непрекращающегося снегопада. Но как же это сделать, если сломанный самолет перекрыл одну из взлетно-посадочных полос, а один из пассажиров прячет в своем чемодане бомбу?..
Доп. информация: Экранизация одноименного романа Артура Хейли
Похоже, что начальнику Международного Аэропорта им. Линкольна Мэлу Бейкерсфелду и всей его команде выпал тяжелый денек - необходимо любой ценой поддерживать работу аэропорта в условиях непрекращающегося снега. Но как же это сделать, если сломанный самолет перекрыл одну из взлетно-посадочных полос, а один из пассажиров прячет в своем чемодане бомбу?..
Оскар в 1971 г. за лучшую женскую роль второго плана (Хелен Хэйес), плюс 9 номинаций

Тип релиза: BDRip 1080p (от nmd) | sample
Контейнер: MKV
Видео кодек: x264
Видео: AVC 1920x816 (2.35:1), 23.976 fps, ~15 Mbps, 0.40 bit/pixel
Аудио #1: Russian AC3 6ch 48kHz 448Kbps | MVO SomeWax
Аудио #2: English DTS 6ch 48kHz 1510Kbps | Original
Формат субтитров: softsub (SRT)
Главы: есть

MediaInfo | x264

x264

x264 [info]: frame I:1294 Avg QP:17.79 size:202153
x264 [info]: frame P:34957 Avg QP:18.54 size:113209
x264 [info]: frame B:160222 Avg QP:19.88 size: 69574
x264 [info]: consecutive B-frames: 0.9% 0.4% 2.5% 8.2% 13.5% 54.7% 12.1% 7.7%
encoded 196473 frames, 3.79 fps, 15001.53 kb/s
General
Complete name : E:\...\Airport.1970.1080p.BluRay.x264.Rus.Eng-nmd.mkv
Format : Matroska
Format version : Version 2
File size : 16.2 GiB
Duration : 2h 16mn
Overall bit rate : 17.0 Mbps
Movie name : Airport.1970.1080p.BluRay.x264.Rus.Eng-nmd
Encoded date : UTC 2013-11-30 08:03:48
Writing application : mkvmerge v6.5.0 ('Isn't she lovely') built on Oct 20 2013 12:50:05
Writing library : libebml v1.3.0 + libmatroska v1.4.1
Video
ID : 1
Format : AVC
Format/Info : Advanced Video Codec
Format profile : High@L4.1
Format settings, CABAC : Yes
Format settings, ReFrames : 5 frames
Codec ID : V_MPEG4/ISO/AVC
Duration : 2h 16mn
Bit rate : 15.0 Mbps
Width : 1 920 pixels
Height : 816 pixels
Display aspect ratio : 2.35:1
Frame rate mode : Constant
Frame rate : 23.976 fps
Color space : YUV
Chroma subsampling : 4:2:0
Bit depth : 8 bits
Scan type : Progressive
Bits/(Pixel*Frame) : 0.399
Stream size : 14.0 GiB (86%)
Title : Airport (1970)
Writing library : x264 core 129 r2230 1cffe9f
Encoding settings : cabac=1 / ref=5 / deblock=1:-3:-3 / analyse=0x3:0x113 / me=umh / subme=11 / psy=1 / psy_rd=1.10:0.15 / mixed_ref=1 / me_range=32 / chroma_me=1 / trellis=2 / 8x8dct=1 / cqm=0 / deadzone=6,6 / fast_pskip=1 / chroma_qp_offset=-3 / threads=9 / lookahead_threads=1 / sliced_threads=0 / nr=0 / decimate=0 / interlaced=0 / bluray_compat=0 / constrained_intra=0 / bframes=7 / b_pyramid=2 / b_adapt=2 / b_bias=0 / direct=1 / weightb=1 / open_gop=0 / weightp=2 / keyint=240 / keyint_min=23 / scenecut=40 / intra_refresh=0 / rc=2pass / mbtree=0 / bitrate=15000 / ratetol=1.0 / qcomp=0.60 / qpmin=0 / qpmax=69 / qpstep=4 / cplxblur=20.0 / qblur=0.5 / ip_ratio=1.10 / pb_ratio=1.20 / aq=1:0.60
Language : English
Default : Yes
Forced : No
Color primaries : BT.709
Transfer characteristics : BT.709
Matrix coefficients : BT.709
Audio #1
ID : 2
Format : AC-3
Format/Info : Audio Coding 3
Mode extension : CM (complete main)
Format settings, Endianness : Big
Codec ID : A_AC3
Duration : 2h 16mn
Bit rate mode : Constant
Bit rate : 448 Kbps
Channel(s) : 6 channels
Channel positions : Front: L C R, Side: L R, LFE
Sampling rate : 48.0 KHz
Bit depth : 16 bits
Compression mode : Lossy
Stream size : 438 MiB (3%)
Title : MVO
Language : Russian
Default : Yes
Forced : No
Audio #2
ID : 3
Format : DTS
Format/Info : Digital Theater Systems
Codec ID : A_DTS
Duration : 2h 16mn
Bit rate mode : Constant
Bit rate : 1 510 Kbps
Channel(s) : 6 channels
Channel positions : Front: L C R, Side: L R, LFE
Sampling rate : 48.0 KHz
Bit depth : 24 bits
Compression mode : Lossy
Stream size : 1.44 GiB (9%)
Title : Original
Language : English
Default : No
Forced : No
Text #1
ID : 4
Format : UTF-8
Codec ID : S_TEXT/UTF8
Codec ID/Info : UTF-8 Plain Text
Language : Russian
Default : No
Forced : No
Text #2
ID : 5
Format : UTF-8
Codec ID : S_TEXT/UTF8
Codec ID/Info : UTF-8 Plain Text
Language : English
Default : No
Forced : No
Menu
00:00:00.000 : en:00:00:00.000
00:07:47.509 : en:00:07:47.509
00:14:54.060 : en:00:14:54.060
00:22:47.449 : en:00:22:47.449
00:32:00.043 : en:00:32:00.043
00:39:05.969 : en:00:39:05.969
00:47:06.866 : en:00:47:06.866
00:52:35.986 : en:00:52:35.986
00:59:43.371 : en:00:59:43.371
01:08:09.335 : en:01:08:09.335
01:16:22.870 : en:01:16:22.870
01:23:08.442 : en:01:23:08.442
01:30:46.691 : en:01:30:46.691
01:38:22.480 : en:01:38:22.480
01:45:40.501 : en:01:45:40.501
01:53:15.038 : en:01:53:15.038
02:00:41.276 : en:02:00:41.276
02:08:21.110 : en:02:08:21.110

Скриншоты

source vs nmd






_________________
Показать сообщения:    

Текущее время: Сегодня 15:31

Часовой пояс: GMT



Вы не можете начинать темы
Вы не можете отвечать на сообщения
Вы не можете редактировать свои сообщения
Вы не можете удалять свои сообщения
Вы не можете голосовать в опросах
Вы не можете прикреплять файлы к сообщениям
Вы не можете скачивать файлы