Важное объявление!
У Нас Все раздачи мультитрекерные, при нуле пиров в релизах, можете смело вставать на закачку!
 
Автор Сообщение

димитри37

Стаж:
3 года 8 месяцев
Сообщений:
1237

Репутация: 127

[+] [-]
Вне форума [Профиль] [ЛС]

Аэроплан / Airplane!
Страна: США
Жанр: Комедия
Год выпуска: 1980
Продолжительность: 01:27:42
Перевод: Профессиональный (многоголосый закадровый) телеканал Россия
Cубтитры: нет
Оригинальная аудиодорожка: нет
Режиссер: Джим Эбрэхэмс / Jim Abrahams, Дэвид Цукер / David Zucker, Джерри Цукер / Jerry Zucker
В ролях: Карим Абдул-Джаббар, Ллойд Бриджес, Питер Грэйвз, Джули Хагерти, Роберт Хэйз, Лесли Нильсен, Лорна Паттерсон, Роберт Стэк, Стивен Стакер, Джонатан Бэнкс, Фрэнк Эшмор, Барбара Биллингсли, Джойс Булифант, Тед Чэпман, Джесси Эмметт, Норман Александер Гиббс, Марси Голдман, Морис Хилл, Джеймс Хонг, Хоуард Хониг, Грегори Итцин, Майкл Лоуренс, Дэвид Лейжер.
Описание: Пародия на фильмы-катастрофы 70-х гг, такие как "Ад в поднебесье", "Землятрясение" и "Аэропорт". "Аэроплан!" играет по всем правилам жанра: натянутые отношения, опасно больные дети, монашка, чернокожие ребята-предатели и так далее. Актеры играют на полном серьезе, как будто они снимаются в драме.

Качество видео: BDRip
Формат видео: AVI
Видео: XviD build 50, 720x400 (16:9), 25.000 fps, 1970 kbps avg
Аудио: Russian AC3 Dolby Digital, 48 kHz, 2/0 (L,R) ch, 192.00 kbps avg

MediaInfo

General
Complete name : F:\Aeroplan_1980\Aeroplan.1980.BDRip.avi
Format : AVI
Format/Info : Audio Video Interleave
File size : 1.33 GiB
Duration : 1h 27mn
Overall bit rate : 2 177 Kbps
Writing application : VirtualDubModRus 1.5.10.2 (build 2542/release)
Writing library : VirtualDubMod build 2542/release
Video
ID : 0
Format : MPEG-4 Visual
Format profile : Advanced Simple@L5
Format settings, BVOP : 1
Format settings, QPel : No
Format settings, GMC : No warppoints
Format settings, Matrix : Custom
Codec ID : XVID
Codec ID/Hint : XviD
Duration : 1h 27mn
Bit rate : 1 975 Kbps
Width : 704 pixels
Height : 400 pixels
Display aspect ratio : 16:9
Frame rate : 23.976 fps
Color space : YUV
Chroma subsampling : 4:2:0
Bit depth : 8 bits
Scan type : Progressive
Compression mode : Lossy
Bits/(Pixel*Frame) : 0.293
Stream size : 1.21 GiB (91%)
Writing library : XviD 1.2.1 (UTC 2008-12-04)
Audio
ID : 1
Format : AC-3
Format/Info : Audio Coding 3
Mode extension : CM (complete main)
Format settings, Endianness : Big
Codec ID : 2000
Duration : 1h 27mn
Bit rate mode : Constant
Bit rate : 192 Kbps
Channel(s) : 2 channels
Channel positions : Front: L R
Sampling rate : 48.0 KHz
Bit depth : 16 bits
Compression mode : Lossy
Stream size : 120 MiB (9%)
Alignment : Split accross interleaves
Interleave, duration : 42 ms (1.00 video frame)
Interleave, preload duration : 500 ms

Скриншоты

-Источник:
Показать сообщения:    

Текущее время: Сегодня 16:29

Часовой пояс: GMT



Вы не можете начинать темы
Вы не можете отвечать на сообщения
Вы не можете редактировать свои сообщения
Вы не можете удалять свои сообщения
Вы не можете голосовать в опросах
Вы не можете прикреплять файлы к сообщениям
Вы не можете скачивать файлы