Важное объявление!
У Нас Все раздачи мультитрекерные, при нуле пиров в релизах, можете смело вставать на закачку!
 
Автор Сообщение

HUNTER

Стаж:
4 года 4 месяца
Сообщений:
56839

Репутация: 101

[+] [-]
Вне форума [Профиль] [ЛС]

Аферисты Дик и Джейн / Fun with Dick and Jane
Страна: США
Студия: Columbia Pictures
Жанр: Комедия, криминал
Год выпуска: 2005
Продолжительность: 1:30:18
Перевод: Профессиональный (дублированный)
Cубтитры: нет
Оригинальная аудиодорожка: нет
Режиссер: Дин Паризо / Dean Parisot
В ролях: Джим Керри, Теа Леони, Алек Болдуин, Ричард Дженкинс, Энджи Хэрмон, Джон Майкл Хиггинс, Ричард Бёрджи, Карлос Джекотт, Глория Гараюа, Мишель Артур, Стэйси Трэвис, Тимм Шарп, Дэвид Херман, Демпси Паппион, Нокс Уайт, Уолтер Эддисон, Ральф Нэйдер, Дина Адар, Дилва Хенри, Рокаэл Руэда ст., Питер Брейтмайер
Описание: Дик Харпер и его молодая жена Джейн привыкли жить красиво. Но в тот момент, когда они затевают строительство бассейна, Дика неожиданно увольняют, оставив его с непогашенной задолжностью за дом в $70 тыс. Понимая, что долго скрывать от соседей бедственность своего положения им не удастся, парочка начинает промышлять мелким грабежом, постепенно входя во вкус.
Доп. информация: WEB-DL
Сэмпл: http://multi-up.com/1045469
Тип релиза: WEB-DL 1080p
Контейнер: MKV
Видео: MPEG-4 AVC, 5019 Кбит/с, 1920x1080, 23.976 кадр/с
Аудио: Русский дублированный , AC3, 5.1 ch, 48kHz, 384 Кбит/с

MediaInfo

General
Unique ID : 234021730934539420265584540239764241702 (0xB00EF2281A4024B0B8228DCEB415BD26)
Complete name : D:\Аферисты Дик и Джейн (1080p HD).mkv
Format : Matroska
Format version : Version 2
File size : 3.48 GiB
Duration : 1h 30mn
Overall bit rate : 5 513 Kbps
Encoded date : UTC 2014-11-05 19:58:05
Writing application : mkvmerge v3.4.0 ('Rapunzel') сборка от May 15 2010 09:38:20
Writing library : libebml v0.8.0 + libmatroska v0.9.0
Video
ID : 1
Format : AVC
Format/Info : Advanced Video Codec
Format profile : High@L4
Format settings, CABAC : Yes
Format settings, ReFrames : 4 frames
Codec ID : V_MPEG4/ISO/AVC
Duration : 1h 30mn
Bit rate : 5 019 Kbps
Width : 1 920 pixels
Height : 1 080 pixels
Display aspect ratio : 16:9
Frame rate mode : Constant
Frame rate : 23.976 fps
Color space : YUV
Chroma subsampling : 4:2:0
Bit depth : 8 bits
Scan type : Progressive
Bits/(Pixel*Frame) : 0.101
Stream size : 3.17 GiB (91%)
Default : No
Forced : No
Color range : Limited
Color primaries : BT.709
Transfer characteristics : BT.709
Matrix coefficients : BT.709
Audio
ID : 2
Format : AC-3
Format/Info : Audio Coding 3
Mode extension : CM (complete main)
Format settings, Endianness : Big
Codec ID : A_AC3
Duration : 1h 30mn
Bit rate mode : Constant
Bit rate : 384 Kbps
Channel(s) : 6 channels
Channel positions : Front: L C R, Side: L R, LFE
Sampling rate : 48.0 KHz
Compression mode : Lossy
Stream size : 248 MiB (7%)
Language : Russian
Default : No
Forced : No

Скриншоты




_________________
Показать сообщения:    

Текущее время: Сегодня 00:10

Часовой пояс: GMT



Вы не можете начинать темы
Вы не можете отвечать на сообщения
Вы не можете редактировать свои сообщения
Вы не можете удалять свои сообщения
Вы не можете голосовать в опросах
Вы не можете прикреплять файлы к сообщениям
Вы не можете скачивать файлы