Важное объявление!
У Нас Все раздачи мультитрекерные, при нуле пиров в релизах, можете смело вставать на закачку!
 
Автор Сообщение

HUNTER

Стаж:
4 года 4 месяца
Сообщений:
56822

Репутация: 101

[+] [-]
Вне форума [Профиль] [ЛС]

Аттила-завоеватель / Attila
Страна: США, Литва
Жанр: боевик, драма, приключения, военный, исторический
Год выпуска: 2001
Продолжительность: 02:54:51
Перевод#1: Профессиональный (многоголосый закадровый) | R5
Перевод#2: Профессиональный (многоголосый закадровый)
Cубтитры: русские (King of Holland), английские
Оригинальная аудиодорожка: английский
Режиссер: Дик Лаури / Dick Lowry
В ролях: Джерард Батлер, Пауэрс Бут, Симон Маккинон, Рег Роджерс, Элис Крайдж, Полин Линч, Стивен Беркофф, Эндрю Плевин, Томми Флэнаган, Кирсти Митчел
Описание: Древние пророчества гласили, что однажды появится человек, который сможет объединить племена свирепых воинов и бросить вызов непобедимой Римской Империи, которая веками правила античным миром.
Имя этого человека стало легендарным и навсегда вошло в историю человечества: Аттила - бесстрашный повелитель гуннов. Фильм повествует о противостоянии двух самых могущественных людей своего времени и их армий - непокорного Аттилы и прославленного римского генерала Флавия...

Доп. информация: за работу над дорогами благодарим Linger babe
Исходник: BDRemux
Тип релиза: BDRip 720p | sample
Контейнер: MKV
Видео кодек: x264
Видео: AVC 1280x720 (16:9), 23.976 fps, ~11200 Kbps, 0.50 bit/pixel
Аудио #1: Russian AC3 2ch 48kHz 192Kbps | MVO R5
Аудио #2: Russian AC3 2ch 48kHz 192Kbps | MVO
Аудио #3: English DTS 6ch 48kHz 755Kbps | Original
Формат субтитров: softsub (SRT)
Главы: есть

MediaInfo | x264

x264
x264 [info]: frame I:1865 Avg QP:16.72 size:176237
x264 [info]: frame P:50950 Avg QP:18.30 size: 99313
x264 [info]: frame B:198724 Avg QP:19.70 size: 46933
x264 [info]: consecutive B-frames: 1.2% 1.3% 5.3% 19.5% 15.6% 51.8% 4.4% 0.4% 0.3% 0.1% 0.0% 0.0% 0.1%
x264 [info]: kb/s:11221.11
General
Complete name : D:\...\Attila.2001.720p.BluRay.x264.2xRus.Eng-E76.mkv
Format : Matroska
Format version : Version 2
File size : 15.1 GiB
Duration : 2h 54mn
Overall bit rate : 12.4 Mbps
Movie name : Attila.2001.720p.BluRay.x264.2xRus.Eng-E76
Encoded date : UTC 2014-08-11 22:25:22
Writing application : mkvmerge v7.0.0 ('Where We Going') 64bit built on Jun 9 2014 15:16:27
Writing library : libebml v1.3.0 + libmatroska v1.4.1
Video
ID : 1
Format : AVC
Format/Info : Advanced Video Codec
Format profile : High@L4.1
Format settings, CABAC : Yes
Format settings, ReFrames : 8 frames
Codec ID : V_MPEG4/ISO/AVC
Duration : 2h 54mn
Bit rate : 11.0 Mbps
Width : 1 280 pixels
Height : 720 pixels
Display aspect ratio : 16:9
Frame rate mode : Constant
Frame rate : 23.976 fps
Color space : YUV
Chroma subsampling : 4:2:0
Bit depth : 8 bits
Scan type : Progressive
Bits/(Pixel*Frame) : 0.497
Stream size : 13.4 GiB (89%)
Title : Attila (2001)
Writing library : x264 core 142 r2431kMod ac76440
Encoding settings : cabac=1 / ref=8 / deblock=1:-3:-3 / analyse=0x3:0x113 / me=umh / subme=11 / psy=1 / fade_compensate=0.00 / psy_rd=1.00:0.00 / mixed_ref=1 / me_range=32 / chroma_me=1 / trellis=2 / 8x8dct=1 / cqm=0 / deadzone=21,11 / fast_pskip=1 / chroma_qp_offset=-2 / threads=6 / lookahead_threads=1 / sliced_threads=0 / nr=0 / decimate=1 / interlaced=0 / bluray_compat=0 / constrained_intra=0 / fgo=0 / bframes=12 / b_pyramid=2 / b_adapt=2 / b_bias=0 / direct=1 / weightb=1 / open_gop=0 / weightp=2 / keyint=240 / keyint_min=23 / scenecut=40 / intra_refresh=0 / rc_lookahead=0 / rc=crf / mbtree=0 / crf=17.2500 / qcomp=0.65 / qpmin=0 / qpmax=69 / qpstep=4 / vbv_maxrate=50000 / vbv_bufsize=62500 / crf_max=0.0 / nal_hrd=none / filler=0 / ip_ratio=1.40 / pb_ratio=1.20 / aq=3:1.00
Language : English
Default : Yes
Forced : No
Matrix coefficients : BT.709
Audio #1
ID : 2
Format : AC-3
Format/Info : Audio Coding 3
Mode extension : CM (complete main)
Format settings, Endianness : Big
Codec ID : A_AC3
Duration : 2h 54mn
Bit rate mode : Constant
Bit rate : 192 Kbps
Channel(s) : 2 channels
Channel positions : Front: L R
Sampling rate : 48.0 KHz
Bit depth : 16 bits
Compression mode : Lossy
Stream size : 240 MiB (2%)
Title : MVO R5
Language : Russian
Default : Yes
Forced : No
Audio #2
ID : 3
Format : AC-3
Format/Info : Audio Coding 3
Mode extension : CM (complete main)
Format settings, Endianness : Big
Codec ID : A_AC3
Duration : 2h 54mn
Bit rate mode : Constant
Bit rate : 192 Kbps
Channel(s) : 2 channels
Channel positions : Front: L R
Sampling rate : 48.0 KHz
Bit depth : 16 bits
Compression mode : Lossy
Stream size : 240 MiB (2%)
Title : MVO
Language : Russian
Default : No
Forced : No
Audio #3
ID : 4
Format : DTS
Format/Info : Digital Theater Systems
Codec ID : A_DTS
Duration : 2h 54mn
Bit rate mode : Constant
Bit rate : 755 Kbps
Channel(s) : 6 channels
Channel positions : Front: L C R, Side: L R, LFE
Sampling rate : 48.0 KHz
Bit depth : 24 bits
Compression mode : Lossy
Stream size : 944 MiB (6%)
Title : Original
Language : English
Default : No
Forced : No
Text #1
ID : 5
Format : UTF-8
Codec ID : S_TEXT/UTF8
Codec ID/Info : UTF-8 Plain Text
Title : King of Holland
Language : Russian
Default : No
Forced : No
Text #2
ID : 6
Format : UTF-8
Codec ID : S_TEXT/UTF8
Codec ID/Info : UTF-8 Plain Text
Language : English
Default : No
Forced : No
Menu
00:00:00.000 : en:00:00:00.000
00:14:04.469 : en:00:14:04.469
00:29:21.885 : en:00:29:21.885
00:42:07.275 : en:00:42:07.275
00:56:45.402 : en:00:56:45.402
01:11:57.480 : en:01:11:57.480
01:27:56.021 : en:01:27:56.021
01:40:10.338 : en:01:40:10.338
01:56:29.149 : en:01:56:29.149
02:08:33.664 : en:02:08:33.664
02:24:29.619 : en:02:24:29.619
02:39:29.435 : en:02:39:29.435

Скриншоты

source vs E76 vs scene






_________________
Показать сообщения:    

Текущее время: Сегодня 22:39

Часовой пояс: GMT



Вы не можете начинать темы
Вы не можете отвечать на сообщения
Вы не можете редактировать свои сообщения
Вы не можете удалять свои сообщения
Вы не можете голосовать в опросах
Вы не можете прикреплять файлы к сообщениям
Вы не можете скачивать файлы