Важное объявление!
У Нас Все раздачи мультитрекерные, при нуле пиров в релизах, можете смело вставать на закачку!
 
Автор Сообщение

HUNTER

Стаж:
4 года 4 месяца
Сообщений:
56719

Репутация: 101

[+] [-]
Вне форума [Профиль] [ЛС]

Атлантида: Затерянный мир / Atlantis: The Lost Empire«'...in a single day and night of misfortune, the island of Atlantis disappeared into the depths of the sea.' -- Plato, 360 B.C»-
Год выпуска: 2001
Страна: США
Жанр: мультфильм, фантастика, приключения, семейный
Продолжительность: 01:35:43
Перевод: Профессиональный (полное дублирование)
Cубтитры: Русские, английские-Режиссер: Гари Труздейл / Gary Trousdale, Кирк Уайз / Kirk Wise
В ролях: Майкл Дж. Фокс, Кори Бертон, Клаудия Кристиан, Джеймс Гарнер, Джон Махони, Фил Моррис, Леонард Нимой, Дон Новелло, Жаклин Обрадорс, Флоренс Стэнли
Описание:
Атлантида… Мечтою найти легендарный затонувший в пучинах океана остров грезили многие смельчаки. Но только юному картографу Майло Тэтчу повезло: в 1914 году в его руки попал таинственный дневник, указывающий путь к Затерянной империи. И вот уже самая могучая подводная лодка в мире под командованием неустрашимого капитана Рурка выходит в открытый океан.
Майло и его спутников ждет множество незабываемых приключений, превосходящих все похождения капитана Немо: схватка с морским чудовищем, древние загадки, буйство стихий, мистические силы и даже встреча с цивилизацией атлантов! И это лишь малая толика того, что ждет героев на их пути к тайнам великой Атлантиды.- -Качество: BDRip-AVC (Blu-Ray)
Формат: MKV
Видео: AVC, 1200x510 (2,35:1), 23,976 fps, 2478 kbps, 0.163 b/p*f
Аудио #1: Russian, AC3, 48kHz, 6ch, 448Kbps | AVO (Визгунов)
Аудио #2: Russian, AC3, 48kHz, 6ch, 448Kbps | MVO
Аудио #3: Russian, AC3, 48kHz, 6ch, 384Kbps | Dub
Аудио #4: English, AC3, 48kHz, 6ch, 448Kbps | Original
Аудио #5: English, AC3, 48kHz, 2ch, 96Kbps | Commentary
Субтитры #1: Russian, SRT, Full
Субтитры #2: Russian, SRT, Forced
Субтитры #3: English, SRT, Full
Субтитры #4: English, SRT, Full (SDH)
Субтитры #5: Russian, SRT, Commentary (Producer Don Hahn and directors Gary Trousdale and Kirk Wise)

x264

Код:
x264 [info]: frame I:1147  Avg QP:13.62  size: 93135
x264 [info]: frame P:35103 Avg QP:15.71  size: 24990
x264 [info]: frame B:101458 Avg QP:17.75  size:  7834
x264 [info]: consecutive B-frames:  2.6%  2.3% 12.3% 51.9% 16.8%  9.5%  1.5%  1.0%  0.6%  0.5%  0.2%  0.2%  0.1%  0.1%  0.1%  0.1%  0.4%
x264 [info]: mb I  I16..4:  8.6% 47.7% 43.6%
x264 [info]: mb P  I16..4:  2.3%  5.1%  4.0%  P16..4: 25.8% 23.4% 12.4%  3.3%  0.5%    skip:23.2%
x264 [info]: mb B  I16..4:  0.8%  0.7%  0.5%  B16..8: 24.5% 14.2%  3.9%  direct: 3.3%  skip:52.2%  L0:48.1% L1:44.4% BI: 7.5%
x264 [info]: 8x8 transform intra:42.5% inter:39.2%
x264 [info]: coded y,uvDC,uvAC intra: 58.2% 82.8% 77.9% inter: 12.0% 15.6% 8.4%
x264 [info]: i16 v,h,dc,p: 71% 12%  7% 11%
x264 [info]: i8 v,h,dc,ddl,ddr,vr,hd,vl,hu: 11%  9% 20%  9% 10% 10% 10%  9% 13%
x264 [info]: i4 v,h,dc,ddl,ddr,vr,hd,vl,hu: 14% 11% 16%  9% 11%  9% 10%  8% 11%
x264 [info]: i8c dc,h,v,p: 50% 26% 16%  8%
x264 [info]: Weighted P-Frames: Y:3.1% UV:2.4%
x264 [info]: ref P L0: 43.3%  4.8% 16.7%  7.7%  5.8%  4.9%  4.0%  2.6%  2.2%  2.1%  1.8%  1.8%  1.8%  0.5%  0.0%
x264 [info]: ref B L0: 61.9% 13.3%  7.7%  4.0%  3.2%  2.6%  2.2%  1.4%  1.3%  1.2%  0.8%  0.5%
x264 [info]: ref B L1: 91.6%  8.4%
x264 [info]: kb/s:2477.64

MI

Общее
Уникальный идентификатор : 188083272262180998664318843705329839235 (0x8D7F85469E68C1F6BEC38851D62DEC83)
Полное имя : D:\Атлантида. Затерянный мир '01 [Wrnr].mkv
Формат : Matroska
Версия формата : Version 4 / Version 2
Размер файла : 2,88 Гбайт
Продолжительность : 1 ч. 35 м.
Общий поток : 4305 Кбит/сек
Название фильма : Атлантида: Затерянный мир / Atlantis: The Lost Empire - 2001
Дата кодирования : UTC 2014-03-07 22:26:14
Программа кодирования : mkvmerge v6.2.0 ('Promised Land') built on Apr 28 2013 12:22:01
Библиотека кодирования : libebml v1.3.0 + libmatroska v1.4.0
Видео
Идентификатор : 1
Формат : AVC
Формат/Информация : Advanced Video Codec
Профиль формата : High@L4.1
Параметр CABAC формата : Да
Параметр ReFrames формата : 13 кадров
Идентификатор кодека : V_MPEG4/ISO/AVC
Продолжительность : 1 ч. 35 м.
Битрейт : 2395 Кбит/сек
Ширина : 1200 пикселей
Высота : 510 пикселей
Соотношение сторон : 2,35:1
Режим частоты кадров : Постоянный
Частота кадров : 23,976 кадра/сек
Цветовое пространство : YUV
Субдискретизация насыщенности : 4:2:0
Битовая глубина : 8 бит
Тип развёртки : Прогрессивная
Бит/(Пиксели*Кадры) : 0.163
Размер потока : 1,60 Гбайт (56%)
Заголовок : Encoded by Wrnr
Библиотека кодирования : x264 core 142 r2389kMod 956c8d8
Настройки программы : cabac=1 / ref=13 / deblock=1:-2:-1 / analyse=0x3:0x133 / me=umh / subme=11 / psy=1 / fade_compensate=0.00 / psy_rd=0.60:0.00 / mixed_ref=1 / me_range=32 / chroma_me=1 / trellis=2 / 8x8dct=1 / cqm=0 / deadzone=21,11 / fast_pskip=0 / chroma_qp_offset=-4 / threads=3 / lookahead_threads=1 / sliced_threads=0 / nr=0 / decimate=1 / interlaced=0 / bluray_compat=0 / constrained_intra=0 / fgo=0 / bframes=16 / b_pyramid=2 / b_adapt=2 / b_bias=0 / direct=1 / weightb=1 / open_gop=0 / weightp=2 / keyint=240 / keyint_min=22 / scenecut=40 / intra_refresh=0 / rc_lookahead=70 / rc=crf / mbtree=0 / crf=18.0000 / qcomp=0.80 / qpmin=0 / qpmax=69 / qpstep=4 / vbv_maxrate=50000 / vbv_bufsize=62500 / crf_max=0.0 / nal_hrd=none / filler=0 / ip_ratio=1.40 / pb_ratio=1.30 / aq=3:0.90
Язык : English
Default : Да
Forced : Нет
Основные цвета : BT.709
Характеристики трансфера : BT.709
Коэффициенты матрицы : BT.709
Аудио #1
Идентификатор : 2
Формат : AC-3
Формат/Информация : Audio Coding 3
Расширение режима : CM (complete main)
Параметр Endianness формата : Big
Идентификатор кодека : A_AC3
Продолжительность : 1 ч. 35 м.
Вид битрейта : Постоянный
Битрейт : 448 Кбит/сек
Каналы : 6 каналов
Расположение каналов : Front: L C R, Side: L R, LFE
Частота : 48,0 КГц
Битовая глубина : 16 бит
Метод сжатия : С потерями
Размер потока : 307 Мбайт (10%)
Заголовок : AVO (Визгунов)
Язык : Russian
Default : Нет
Forced : Нет
Аудио #2
Идентификатор : 3
Формат : AC-3
Формат/Информация : Audio Coding 3
Расширение режима : CM (complete main)
Параметр Endianness формата : Big
Идентификатор кодека : A_AC3
Продолжительность : 1 ч. 35 м.
Вид битрейта : Постоянный
Битрейт : 448 Кбит/сек
Каналы : 6 каналов
Расположение каналов : Front: L C R, Side: L R, LFE
Частота : 48,0 КГц
Битовая глубина : 16 бит
Метод сжатия : С потерями
Размер потока : 307 Мбайт (10%)
Заголовок : MVO
Язык : Russian
Default : Нет
Forced : Нет
Аудио #3
Идентификатор : 4
Формат : AC-3
Формат/Информация : Audio Coding 3
Расширение режима : CM (complete main)
Параметр Endianness формата : Big
Идентификатор кодека : A_AC3
Продолжительность : 1 ч. 35 м.
Вид битрейта : Постоянный
Битрейт : 384 Кбит/сек
Каналы : 6 каналов
Расположение каналов : Front: L C R, Side: L R, LFE
Частота : 48,0 КГц
Битовая глубина : 16 бит
Метод сжатия : С потерями
Размер потока : 263 Мбайт (9%)
Заголовок : Dub
Язык : Russian
Default : Да
Forced : Нет
Аудио #4
Идентификатор : 5
Формат : AC-3
Формат/Информация : Audio Coding 3
Расширение режима : CM (complete main)
Параметр Endianness формата : Big
Идентификатор кодека : A_AC3
Продолжительность : 1 ч. 35 м.
Вид битрейта : Постоянный
Битрейт : 448 Кбит/сек
Каналы : 6 каналов
Расположение каналов : Front: L C R, Side: L R, LFE
Частота : 48,0 КГц
Битовая глубина : 16 бит
Метод сжатия : С потерями
Размер потока : 307 Мбайт (10%)
Заголовок : Original
Язык : English
Default : Нет
Forced : Нет
Аудио #5
Идентификатор : 6
Формат : AC-3
Формат/Информация : Audio Coding 3
Профиль формата : Dolby Digital
Расширение режима : CM (complete main)
Параметр Endianness формата : Big
Идентификатор кодека : A_AC3
Продолжительность : 1 ч. 35 м.
Вид битрейта : Постоянный
Битрейт : 96,0 Кбит/сек
Каналы : 2 канала
Расположение каналов : Front: L R
Частота : 48,0 КГц
Битовая глубина : 16 бит
Метод сжатия : С потерями
Размер потока : 65,7 Мбайт (2%)
Заголовок : Commentary (Producer Don Hahn and directors Gary Trousdale and Kirk Wise)
Язык : English
Default : Нет
Forced : Нет
Текст #1
Идентификатор : 7
Формат : UTF-8
Идентификатор кодека : S_TEXT/UTF8
Идентификатор кодека/Информация : UTF-8 Plain Text
Заголовок : Forced
Язык : Russian
Default : Да
Forced : Нет
Текст #2
Идентификатор : 8
Формат : UTF-8
Идентификатор кодека : S_TEXT/UTF8
Идентификатор кодека/Информация : UTF-8 Plain Text
Заголовок : Full
Язык : Russian
Default : Нет
Forced : Нет
Текст #3
Идентификатор : 9
Формат : UTF-8
Идентификатор кодека : S_TEXT/UTF8
Идентификатор кодека/Информация : UTF-8 Plain Text
Заголовок : Full
Язык : English
Default : Нет
Forced : Нет
Текст #4
Идентификатор : 10
Формат : UTF-8
Идентификатор кодека : S_TEXT/UTF8
Идентификатор кодека/Информация : UTF-8 Plain Text
Заголовок : Full (SDH)
Язык : English
Default : Нет
Forced : Нет
Текст #5
Идентификатор : 11
Формат : UTF-8
Идентификатор кодека : S_TEXT/UTF8
Идентификатор кодека/Информация : UTF-8 Plain Text
Заголовок : Commentary (Producer Don Hahn and directors Gary Trousdale and Kirk Wise)
Язык : Russian
Default : Нет
Forced : Нет
Меню
00:00:00.000 : en:1. Prologue
00:02:30.817 : en:2. Milo's Presentation
00:07:55.099 : en:3. A Most Intriguing Proposition
00:13:42.530 : en:4. The Expedition Begins
00:18:47.126 : en:5. The Lair of the Leviathan
00:26:25.125 : en:6. Convoy
00:31:32.807 : en:7. New Friends
00:36:16.716 : en:8. Fire!
00:40:53.284 : en:9. Welcome to the City of Atlantis
00:46:56.230 : en:10. Questions
00:53:53.355 : en:11. The Missing Page
00:59:41.119 : en:12. The Heart of Atlantis
01:06:22.228 : en:13. A Change of Heart
01:09:40.175 : en:14. "Save Atlantis, Save My Daughter"
01:13:09.343 : en:15. The Right Thing to Do
01:19:43.779 : en:16. Saving Atlantis
01:25:10.772 : en:17. Proof
01:28:02.568 : en:18. A Place Among Kings
01:29:27.028 : en:19. End Credits

Скриншоты

Source | Rip


_________________
Показать сообщения:    

Текущее время: Сегодня 04:00

Часовой пояс: GMT



Вы не можете начинать темы
Вы не можете отвечать на сообщения
Вы не можете редактировать свои сообщения
Вы не можете удалять свои сообщения
Вы не можете голосовать в опросах
Вы не можете прикреплять файлы к сообщениям
Вы не можете скачивать файлы