Важное объявление!
У Нас Все раздачи мультитрекерные, при нуле пиров в релизах, можете смело вставать на закачку!
 
Автор Сообщение

HUNTER

Стаж:
4 года 4 месяца
Сообщений:
56809

Репутация: 101

[+] [-]
Вне форума [Профиль] [ЛС]

Атлантида 2: Возвращение Майло / Atlantis: Milo's Return
Страна: США
Жанр: мультфильм, боевик, комедия, приключения, семейны
Продолжительность: 01:20:32
Год выпуска: 2003
Перевод: Профессиональный (дублированный)
Перевод 2: Профессиональный (многоголосый закадровый)
Русские субтитры: нет
Режиссёр: Виктор Кук / Victor Cook, Тоби Шелтон / Toby Shelton, Тэд Стоунс / Tad Stones
Роли озвучивали: Джеймс Арнольд Тейлор , Кри Саммер , Джон Махони , Жаклин Обрадорс , Дон Новелло , Кори Бертон , Фил Моррис , Флоренс Стэнли , Фрэнк Уэлкер , Стив Барр
Описание: Майло, Кида и команда смелых исследователей Атлантиды возвращаются в новых приключениях, полных ожидания и действия.
В течение первой экспедиции Майло и Кида открыли подводное царство, а так же спасли его и всех его обитателей.
Теперь опасность подкралась с поверхности воды и отважным героям придется покинуть Атлантиду;

Семпл: http://multi-up.com/885148
Качество: BDRip 1080p
Формат: MKV
Видео: 1828x1080 (1.693:1), 23.976 fps, AVC, 6 697 Kbps
Аудио: AC3, 192 Kbps, 48.0 KHz, 2 ch Дубляж [R5]
Аудио 2: DTS , 1509 kbps, 6 ch, 48,0 КГц |MVO|
Аудио 3: DTS , 1509 kbps, 6 ch, 48,0 КГц |Original|
Субтитры: English (SRT/UTF-8)

Лог х264

Standard error stream- raw [info]: 1828x1080p 1:1 @ 24000/1001 fps (cfr)- x264 [info]: using SAR=1/1- x264 [info]: using cpu capabilities: MMX2 SSE2Fast SSSE3 SSE4.2 AVX- x264 [info]: profile High, level 4.1- x264 [info]: frame I:1145 Avg QP:12.82 size:170686- x264 [info]: frame P:34233 Avg QP:15.00 size: 63132- x264 [info]: frame B:80303 Avg QP:16.07 size: 20842- x264 [info]: consecutive B-frames: 6.7% 6.5% 16.1% 35.8% 20.2% 10.0% 2.3% 1.2% 1.1%- x264 [info]: mb I I16..4: 7.8% 82.1% 10.1%- x264 [info]: mb P I16..4: 4.4% 23.8% 2.3% P16..4: 32.0% 14.9% 8.9% 0.2% 0.0% skip:13.4%- x264 [info]: mb B I16..4: 1.5% 3.4% 0.2% B16..8: 27.7% 9.9% 2.2% direct: 7.8% skip:47.2% L0:47.7% L1:47.4% BI: 4.8%- x264 [info]: 8x8 transform intra:75.5% inter:62.0%- x264 [info]: direct mvs spatial:97.2% temporal:2.8%- x264 [info]: coded y,uvDC,uvAC intra: 63.4% 76.0% 52.2% inter: 16.7% 23.9% 2.0%- x264 [info]: i16 v,h,dc,p: 58% 16% 12% 14%- x264 [info]: i8 v,h,dc,ddl,ddr,vr,hd,vl,hu: 10% 11% 34% 6% 7% 6% 8% 7% 10%- x264 [info]: i4 v,h,dc,ddl,ddr,vr,hd,vl,hu: 16% 14% 16% 8% 12% 9% 10% 7% 9%- x264 [info]: i8c dc,h,v,p: 49% 27% 17% 6%- x264 [info]: Weighted P-Frames: Y:1.7% UV:1.2%- x264 [info]: ref P L0: 49.6% 3.8% 27.0% 15.3% 4.2% 0.0%- x264 [info]: ref B L0: 71.0% 21.5% 7.5%- x264 [info]: ref B L1: 87.3% 12.7%- x264 [info]: kb/s:6682.53- encoded 115681 frames, 5.97 fps, 6682.53 kb/s

МедиаИнфо

GeneralUnique ID : 212439207776582948274994666125419008096 (0x9FD24D9C0461CDB58612A542CB3ED060)Complete name : D:\торрент\Atlantida.2.Vozvrashenie.Mailo.2003.BDRip.1080p.mkvFormat : MatroskaFormat version : Version 4 / Version 2File size : 5.56 GiBDuration : 1h 20mnOverall bit rate : 9 885 KbpsMovie name : релиз от FREEISLAND.ORGEncoded date : UTC 2013-07-16 18:33:19Writing application : mkvmerge v6.1.0 ('Old Devil') built on Mar 2 2013 14:32:37Writing library : libebml v1.3.0 + libmatroska v1.4.0
VideoID : 1Format : AVCFormat/Info : Advanced Video CodecFormat profile : High@L4.1Format settings, CABAC : YesFormat settings, ReFrames : 4 framesCodec ID : V_MPEG4/ISO/AVCBit rate : 6 697 KbpsWidth : 1 828 pixelsHeight : 1 080 pixelsDisplay aspect ratio : 1.693Frame rate mode : VariableOriginal frame rate : 23.976 fpsColor space : YUVChroma subsampling : 4:2:0Bit depth : 8 bitsScan type : ProgressiveBits/(Pixel*Frame) : 0.141Writing library : x264 core 133 r2334 a3ac64bEncoding settings : cabac=1 / ref=4 / deblock=1:0:0 / analyse=0x3:0x133 / me=umh / subme=10 / psy=1 / psy_rd=1.00:0.00 / mixed_ref=1 / me_range=32 / chroma_me=1 / trellis=2 / 8x8dct=1 / cqm=0 / deadzone=21,11 / fast_pskip=0 / chroma_qp_offset=-2 / threads=6 / lookahead_threads=1 / sliced_threads=0 / nr=0 / decimate=1 / interlaced=0 / bluray_compat=0 / constrained_intra=0 / bframes=8 / b_pyramid=2 / b_adapt=2 / b_bias=0 / direct=3 / weightb=1 / open_gop=0 / weightp=2 / keyint=240 / keyint_min=24 / scenecut=40 / intra_refresh=0 / rc_lookahead=50 / rc=2pass / mbtree=0 / bitrate=6697 / ratetol=2.0 / qcomp=1.00 / qpmin=0 / qpmax=50 / qpstep=4 / cplxblur=20.0 / qblur=0.5 / vbv_maxrate=50000 / vbv_bufsize=62500 / nal_hrd=none / ip_ratio=1.40 / pb_ratio=1.30 / aq=1:1.00Language : EnglishDefault : YesForced : NoColor primaries : BT.709Transfer characteristics : BT.709Matrix coefficients : BT.709
Audio #1ID : 2Format : AC-3Format/Info : Audio Coding 3Mode extension : CM (complete main)Format settings, Endianness : BigCodec ID : A_AC3Duration : 1h 20mnBit rate mode : ConstantBit rate : 192 KbpsChannel(s) : 2 channelsChannel positions : Front: L RSampling rate : 48.0 KHzBit depth : 16 bitsCompression mode : LossyStream size : 111 MiB (2%)Title : Дубляж [R5]Language : RussianDefault : YesForced : No
Audio #2ID : 3Format : DTSFormat/Info : Digital Theater SystemsCodec ID : A_DTSDuration : 1h 20mnBit rate mode : ConstantBit rate : 1 510 KbpsChannel(s) : 6 channelsChannel positions : Front: L C R, Side: L R, LFESampling rate : 48.0 KHzBit depth : 24 bitsCompression mode : LossyStream size : 870 MiB (15%)Title : MVOLanguage : RussianDefault : NoForced : No
Audio #3ID : 4Format : DTSFormat/Info : Digital Theater SystemsCodec ID : A_DTSDuration : 1h 20mnBit rate mode : ConstantBit rate : 1 510 KbpsChannel(s) : 6 channelsChannel positions : Front: L C R, Side: L R, LFESampling rate : 48.0 KHzBit depth : 24 bitsCompression mode : LossyStream size : 870 MiB (15%)Language : EnglishDefault : NoForced : No
TextID : 5Format : UTF-8Codec ID : S_TEXT/UTF8Codec ID/Info : UTF-8 Plain TextTitle : FullLanguage : EnglishDefault : NoForced : No
Menu00:00:00.000 : en:01. Opening Titles/Rebuilding Atlantis00:06:51.619 : en:02. Meeting Kraken00:14:13.185 : en:03. Learning About Volgud00:20:53.085 : en:04. Saving Audrey00:27:33.193 : en:05. Defeating the Kraken00:34:45.833 : en:06. Carnaby's Ranch00:40:59.665 : en:07. Returning the Pot00:52:13.004 : en:08. Hellstrom's Revenge01:00:24.078 : en:09. Battle for the Spear01:10:41.946 : en:10. The Heart of Atlantis/End Credits

Скриншоты



_________________
Показать сообщения:    

Текущее время: Сегодня 15:53

Часовой пояс: GMT



Вы не можете начинать темы
Вы не можете отвечать на сообщения
Вы не можете редактировать свои сообщения
Вы не можете удалять свои сообщения
Вы не можете голосовать в опросах
Вы не можете прикреплять файлы к сообщениям
Вы не можете скачивать файлы