Важное объявление!
У Нас Все раздачи мультитрекерные, при нуле пиров в релизах, можете смело вставать на закачку!
 
Автор Сообщение

HUNTER

Стаж:
4 года 4 месяца
Сообщений:
56839

Репутация: 101

[+] [-]
Вне форума [Профиль] [ЛС]

Атака легкой кавалерии / The Charge of the Light Brigade
Страна: США
Жанр: боевик, мелодрама, приключения, военный
Год выпуска: 1936
Продолжительность: 01:55:21
Перевод: Профессиональный (многоголосый закадровый) Светла
Cубтитры: английские
Оригинальная аудиодорожка: английский
Режиссер: Майкл Кёртиц / Michael Curtiz
В ролях: Эррол Флинн, Оливия Де Хэвилленд, Патрик Ноулз, Генри Стивенсон, Найджел Брюс, Дональд Крисп, Дэвид Нивен, С. Генри Гордон, Г.П. Хантли, Роберт Бэррат
Описание: Конвой британских уланов в сопровождении сэра Хамфри Аркура прибывает с дипломатической миссией в Суристан — северо-западная Индия — перед началом Крымской войны. Майор Джеффри Викерс, блестящий британский офицер, встречается с индийским раджой, которого знает со времен учебы в Лондоне. Теперь Сурат Хан живет в горном замке и стал могущественным эмиром всех земель Суристана.
Вскоре Сурат Хан, который прекращает связи с Англией и вступает в союз с Россией, поднимает восстание, которое переходит в кровавую резню. После коварного предательства Сурат Ханом британских войск Викерс ищет мести, проведя глупую, но храбрую атаку на русские силы…
В 1854 году в ходе Крымской войны английское командование бросило в лихую атаку на русские пушки элитную кавалерийскую бригаду. Цвет аристократической молодежи полег в «долине смерти» под Балаклавой. До сих пор для англичан выражение «атака легкой кавалерии» - синоним невероятно храброго, но бессмысленного поступка. Крымский эпизод — лишь эпилог великолепного фильма Майкла Кертица.
Доп. информация:


За дорожку с переводом спасибо palmeiras
Сэмпл: http://sendfile.su/1043369
Тип релиза: WEB-DL 720p
Контейнер: MKV
Видео: AVC, 984x720, L3.1, 23.976fps, 4276kbps
Аудио 1: Russian: AC3, 48000Hz, 2ch, 192kbps
Аудио 2: English: AC3, 48000Hz, 1ch, 192kbps - DVD
Аудио 3: English: AAC, 48000Hz, 2ch, 122kbps - WEB-DL
Формат субтитров: softsub (SRT)

MediaInfo

Общее
Уникальный идентификатор : 216669579054314614014538073859714955433 (0xA3010B04442A9DFF90AA057B5C73B8A9)
Полное имя : T:\The Charge of the Light Brigade (WEB-DL 720p).mkv
Формат : Matroska
Версия формата : Version 4 / Version 2
Размер файла : 3,85 Гбайт
Продолжительность : 1 ч. 55 м.
Общий поток : 4782 Кбит/сек
Дата кодирования : UTC 2014-11-02 10:16:43
Программа кодирования : mkvmerge v6.9.1 ('Blue Panther') 64bit built on Apr 18 2014 18:23:38
Библиотека кодирования : libebml v1.3.0 + libmatroska v1.4.1
Видео
Идентификатор : 1
Формат : AVC
Формат/Информация : Advanced Video Codec
Профиль формата : High@L3.1
Параметр CABAC формата : Нет
Параметр ReFrames формата : 2 кадра
Идентификатор кодека : V_MPEG4/ISO/AVC
Продолжительность : 1 ч. 55 м.
Ширина : 984 пикселя
Высота : 720 пикселей
Соотношение сторон : 4:3
Режим частоты кадров : Постоянный
Частота кадров : 23,976 кадра/сек
Цветовое пространство : YUV
Субдискретизация насыщенности : 4:2:0
Битовая глубина : 8 бит
Тип развёртки : Прогрессивная
Язык : English
Default : Да
Forced : Нет
Основные цвета : BT.709
Характеристики трансфера : BT.709
Коэффициенты матрицы : BT.709
Аудио #1
Идентификатор : 2
Формат : AC-3
Формат/Информация : Audio Coding 3
Расширение режима : CM (complete main)
Параметр Endianness формата : Big
Идентификатор кодека : A_AC3
Продолжительность : 1 ч. 55 м.
Вид битрейта : Постоянный
Битрейт : 192 Кбит/сек
Каналы : 2 канала
Расположение каналов : Front: L R
Частота : 48,0 КГц
Битовая глубина : 16 бит
Метод сжатия : С потерями
Размер потока : 158 Мбайт (4%)
Заголовок : Светла
Язык : Russian
Default : Да
Forced : Нет
Аудио #2
Идентификатор : 3
Формат : AC-3
Формат/Информация : Audio Coding 3
Расширение режима : CM (complete main)
Параметр Endianness формата : Big
Идентификатор кодека : A_AC3
Продолжительность : 1 ч. 55 м.
Вид битрейта : Постоянный
Битрейт : 192 Кбит/сек
Каналы : 1 канал
Расположение каналов : Front: C
Частота : 48,0 КГц
Битовая глубина : 16 бит
Метод сжатия : С потерями
Размер потока : 158 Мбайт (4%)
Заголовок : DVD
Язык : English
Default : Нет
Forced : Нет
Аудио #3
Идентификатор : 4
Формат : AAC
Формат/Информация : Advanced Audio Codec
Профиль формата : LC
Идентификатор кодека : A_AAC
Продолжительность : 1 ч. 55 м.
Каналы : 2 канала
Расположение каналов : Front: L R
Частота : 48,0 КГц
Метод сжатия : С потерями
Заголовок : WEB-DL
Язык : English
Default : Нет
Forced : Нет
Текст
Идентификатор : 5
Формат : UTF-8
Идентификатор кодека : S_TEXT/UTF8
Идентификатор кодека/Информация : UTF-8 Plain Text
Язык : English
Default : Нет
Forced : Нет
Меню
00:00:00.000 : en:1.
00:02:04.000 : en:2.
00:06:58.000 : en:3.
00:10:20.000 : en:4.
00:12:59.000 : en:5.
00:15:05.000 : en:6.
00:18:29.000 : en:7.
00:22:31.000 : en:8.
00:26:59.000 : en:9.
00:32:19.000 : en:10.
00:35:15.000 : en:11.
00:38:55.000 : en:12.
00:41:21.000 : en:13.
00:45:19.000 : en:14.
00:49:44.000 : en:15.
00:53:03.000 : en:16.
00:59:20.000 : en:17.
01:04:23.000 : en:18.
01:09:45.000 : en:19.
01:15:34.000 : en:20.
01:19:27.000 : en:21.
01:22:04.000 : en:22.
01:26:37.000 : en:23.
01:31:05.000 : en:24.
01:38:50.000 : en:25.
01:43:52.000 : en:26.
01:47:00.000 : en:27.
01:50:05.000 : en:28.
01:53:13.000 : en:29.
01:54:40.000 : en:30.

Скриншоты


_________________
Показать сообщения:    

Текущее время: Сегодня 07:40

Часовой пояс: GMT



Вы не можете начинать темы
Вы не можете отвечать на сообщения
Вы не можете редактировать свои сообщения
Вы не можете удалять свои сообщения
Вы не можете голосовать в опросах
Вы не можете прикреплять файлы к сообщениям
Вы не можете скачивать файлы