Важное объявление!
У Нас Все раздачи мультитрекерные, при нуле пиров в релизах, можете смело вставать на закачку!
 
Автор Сообщение

HUNTER

Стаж:
4 года 4 месяца
Сообщений:
56848

Репутация: 101

[+] [-]
Вне форума [Профиль] [ЛС]

Астрал на улице Арлетт / Улица Арлетт, 388 / 388 Arletta Avenue
«У вас когда-то было ощущение, что за вами наблюдают?»
-
Страна: Канада
Жанр: ужасы, триллер
Год выпуска: 2011
Продолжительность: 01:26:22-Перевод №1: Профессиональный (многоголосый, закадровый) - R5
Перевод №2: Одноголосый закадровый - zamez
Оригинальная аудиодорожка: English
Cубтитры: Русские (полные)
Навигация по главам: присутствует - 8 глав-Режиссер: Рэндолл Коул / Randall Cole
В ролях: Ник Стал, Миа Киршнер, Девон Сава, Аарон Абрамс, Шарлотта Салливан, Криста Бриджес, Грэхэм Эбби, Джерри Ди, Кайл Лэбин, Дэниэл Левек, Дэвид Реале, Мартин Роуч-Описание: Неизвестный ведет наблюдение за молодой парой 24 часа в сутки при помощи размещенных в их доме скрытых камер. Вскоре герои начинают подозревать неладное и узнают о слежке. С этого момента кошмар ситуации только нарастает…-
Download sample-Качество видео: BDRip 720p | исх. BDRemux 1080p - thx: Arifis
Формат: MKV-Видео: 1 280x690 (1.85:1), 23.976 fps, H.264, 3392.45 kb/s, 0.156 bit/pixel
Аудио №1: 48.0 kHz, AC3 Dolby Digital, 3/2 (L,C,R,l,r) + LFE ch, ~448 kbps avg | Профессиональный (многоголосый, закадровый) - R5
Аудио №2: 48.0 kHz, AC3 Dolby Digital, 3/2 (L,C,R,l,r) + LFE ch, ~448 kbps avg | Одноголосый закадровый - zamez
Аудио №3: 48.0 kHz, AC3 Dolby Digital, 3/2 (L,C,R,l,r) + LFE ch, ~640 kbps avg | English
Субтитры: Русские (полные) | *.srt-

MediaInfo

General
Unique ID : 247624060637076732128795138806611413105 (0xBA4AA8CA0F05331D8BF133F47AB38871)
Complete name : D:\Фильмы\Рипы\388 Arletta Avenue.2011.BDRip 720p.eFK tRuAVC.mkv
Format : Matroska
Format version : Version 4 / Version 2
File size : 2.98 GiB
Duration : 1h 26mn
Overall bit rate : 4 936 Kbps
Movie name : Астрал на улице Арлетт / Улица Арлетт, 388 / 388 Arletta Avenue (2011) - Release for rutracker
Encoded date : UTC 2015-12-20 09:47:18
Writing application : mkvmerge v7.6.0 ('Garden of Dreams') 64bit built on Feb 8 2015 13:04:34
Writing library : libebml v1.3.1 + libmatroska v1.4.2
Attachements : cover.png
DURATION : 01:26:22.656000000
NUMBER_OF_FRAMES : 161958
NUMBER_OF_BYTES : 414612480
_STATISTICS_WRITING_APP : mkvmerge v7.6.0 ('Garden of Dreams') 64bit built on Feb 8 2015 13:04:34
_STATISTICS_WRITING_DATE_UT : 2015-12-20 09:47:18
_STATISTICS_TAGS : BPS DURATION NUMBER_OF_FRAMES NUMBER_OF_BYTES
Video
ID : 1
Format : AVC
Format/Info : Advanced Video Codec
Format profile : High@L4.1
Format settings, CABAC : Yes
Format settings, ReFrames : 8 frames
Codec ID : V_MPEG4/ISO/AVC
Duration : 1h 26mn
Bit rate : 3 302 Kbps
Width : 1 280 pixels
Height : 690 pixels
Display aspect ratio : 1.85:1
Frame rate mode : Constant
Frame rate : 23.976 fps
Color space : YUV
Chroma subsampling : 4:2:0
Bit depth : 8 bits
Scan type : Progressive
Bits/(Pixel*Frame) : 0.156
Stream size : 1.99 GiB (67%)
Title : eFK tRuAVC
Writing library : x264 core 148 r2638kMod 7599210
Encoding settings : cabac=1 / ref=8 / deblock=1:-3:-2 / analyse=0x3:0x113 / me=umh / subme=11 / psy=1 / fade_compensate=0.00 / psy_rd=1.07:0.05 / mixed_ref=1 / me_range=64 / chroma_me=1 / trellis=2 / 8x8dct=1 / cqm=0 / deadzone=21,11 / fast_pskip=0 / chroma_qp_offset=-3 / threads=12 / lookahead_threads=3 / sliced_threads=0 / nr=0 / decimate=1 / interlaced=0 / bluray_compat=0 / constrained_intra=0 / fgo=0 / bframes=16 / b_pyramid=2 / b_adapt=2 / b_bias=0 / direct=3 / weightb=1 / open_gop=0 / weightp=2 / keyint=250 / keyint_min=23 / scenecut=40 / intra_refresh=0 / rc_lookahead=60 / rc=crf / mbtree=0 / crf=18.4000 / qcomp=0.80 / qpmin=0 / qpmax=69 / qpstep=4 / vbv_maxrate=62500 / vbv_bufsize=78125 / crf_max=0.0 / nal_hrd=none / filler=0 / ip_ratio=1.40 / pb_ratio=1.30 / aq=1:1.05
Language : English
Default : Yes
Forced : No
Color range : Limited
Color primaries : BT.709
Transfer characteristics : BT.709
Matrix coefficients : BT.709
DURATION : 01:26:22.594000000
NUMBER_OF_FRAMES : 124258
NUMBER_OF_BYTES : 2197711766
_STATISTICS_WRITING_APP : mkvmerge v7.6.0 ('Garden of Dreams') 64bit built on Feb 8 2015 13:04:34
_STATISTICS_WRITING_DATE_UT : 2015-12-20 09:47:18
_STATISTICS_TAGS : BPS DURATION NUMBER_OF_FRAMES NUMBER_OF_BYTES
Audio #1
ID : 2
Format : AC-3
Format/Info : Audio Coding 3
Mode extension : CM (complete main)
Format settings, Endianness : Big
Codec ID : A_AC3
Duration : 1h 26mn
Bit rate mode : Constant
Bit rate : 448 Kbps
Channel(s) : 6 channels
Channel positions : Front: L C R, Side: L R, LFE
Sampling rate : 48.0 KHz
Compression mode : Lossy
Stream size : 277 MiB (9%)
Title : Профессиональный (многоголосый, закадровый) - R5
Language : Russian
Default : Yes
Forced : No
Audio #2
ID : 3
Format : AC-3
Format/Info : Audio Coding 3
Mode extension : CM (complete main)
Format settings, Endianness : Big
Codec ID : A_AC3
Duration : 1h 26mn
Bit rate mode : Constant
Bit rate : 448 Kbps
Channel(s) : 6 channels
Channel positions : Front: L C R, Side: L R, LFE
Sampling rate : 48.0 KHz
Compression mode : Lossy
Stream size : 277 MiB (9%)
Title : Одноголосый закадровый - zamez
Language : Russian
Default : No
Forced : No
Audio #3
ID : 4
Format : AC-3
Format/Info : Audio Coding 3
Mode extension : CM (complete main)
Format settings, Endianness : Big
Codec ID : A_AC3
Duration : 1h 26mn
Bit rate mode : Constant
Bit rate : 640 Kbps
Channel(s) : 6 channels
Channel positions : Front: L C R, Side: L R, LFE
Sampling rate : 48.0 KHz
Compression mode : Lossy
Stream size : 395 MiB (13%)
Language : English
Default : No
Forced : No
Text
ID : 5
Format : UTF-8
Codec ID : S_TEXT/UTF8
Codec ID/Info : UTF-8 Plain Text
Title : полные
Language : Russian
Default : No
Forced : No
Menu
00:00:00.000 : :Chapter 01
00:11:29.438 : :Chapter 02
00:22:55.624 : :Chapter 03
00:33:35.138 : :Chapter 04
00:44:20.991 : :Chapter 05
00:54:07.577 : :Chapter 06
01:04:31.117 : :Chapter 07
01:13:55.806 : :Chapter 08

x264 log

x264 [info]: frame I:635 Avg QP:14.19 size: 92299
x264 [info]: frame P:23493 Avg QP:16.58 size: 32999
x264 [info]: frame B:100130 Avg QP:18.02 size: 13621
x264 [info]: consecutive B-frames: 1.2% 1.2% 4.3% 12.9% 12.9% 49.8% 6.0% 3.6% 2.4% 1.1% 1.0% 1.2% 0.7% 0.4% 0.6% 0.3% 0.2%
x264 [info]: mb I I16..4: 13.9% 66.1% 20.0%
x264 [info]: mb P I16..4: 1.9% 11.1% 1.9% P16..4: 30.8% 29.7% 10.2% 0.0% 0.0% skip:14.4%
x264 [info]: mb B I16..4: 0.4% 2.2% 0.3% B16..8: 27.8% 16.3% 3.1% direct: 5.6% skip:44.3% L0:50.0% L1:40.6% BI: 9.4%
x264 [info]: 8x8 transform intra:74.7% inter:59.5%
x264 [info]: direct mvs spatial:100.0% temporal:0.0%
x264 [info]: coded y,uvDC,uvAC intra: 72.1% 74.3% 66.0% inter: 18.8% 19.5% 7.0%
x264 [info]: i16 v,h,dc,p: 68% 12% 6% 14%
x264 [info]: i8 v,h,dc,ddl,ddr,vr,hd,vl,hu: 10% 9% 20% 8% 10% 10% 11% 10% 13%
x264 [info]: i4 v,h,dc,ddl,ddr,vr,hd,vl,hu: 18% 8% 38% 4% 6% 6% 6% 6% 8%
x264 [info]: i8c dc,h,v,p: 43% 31% 14% 11%
x264 [info]: Weighted P-Frames: Y:7.2% UV:4.2%
x264 [info]: ref P L0: 39.7% 6.1% 20.4% 9.3% 8.1% 6.2% 6.1% 3.7% 0.4% 0.0%
x264 [info]: ref B L0: 55.2% 17.5% 11.2% 6.7% 5.4% 3.0% 1.1%
x264 [info]: ref B L1: 87.9% 12.1%
x264 [info]: kb/s:3392.45
x264 [total]: encoded 124258 frames, 8.08 fps, 3392.45 kb/s, duration 4:16:16.25

Comparison

Source

Encode

_________________
Показать сообщения:    

Текущее время: Сегодня 09:25

Часовой пояс: GMT



Вы не можете начинать темы
Вы не можете отвечать на сообщения
Вы не можете редактировать свои сообщения
Вы не можете удалять свои сообщения
Вы не можете голосовать в опросах
Вы не можете прикреплять файлы к сообщениям
Вы не можете скачивать файлы
Наши партнеры: интернет магазин Ивановского трикотажа textilla.ru