Важное объявление!
У Нас Все раздачи мультитрекерные, при нуле пиров в релизах, можете смело вставать на закачку!
 
Автор Сообщение

neon10_10

Стаж:
5 лет 9 месяцев
Сообщений:
63

Репутация: 49

[+] [-]
Вне форума [Профиль] [ЛС]

Астрал / Insidious-«Это не дом населён призраками...»-Страна: США
Жанр: ужасы, триллер
Бюджет: $1 000 000
Рейтинг MPAA: PG-13 детям до 13 лет просмотр не желателен
Премьера в мире / в России / релиз на DVD (Blu-ray): 31 марта 2011 / 1 апреля 2011, «Top Film Distribution» / 28 апреля 2011, «New Dream media», «Новый Диск» (16 июня 2011, «New Dream media», «Новый Диск»)
Сборы в США / в мире / в России: $53 972 685 / $38 000 000 / $3 891 243
Продолжительность: 01:42:52-Перевод: Профессиональный (полное дублирование - Творческое объединение «Дия»)
Навигация по главам: есть
Cубтитры: русские, украинские, английские SDH, английские, испанские-Режиссер: Джеймс Ван / James Wan
Сценарий: Ли Уоннелл
Продюсер: Джейсон Блум, Орен Пели, Стивен Шнайдер, ...
Оператор: Дэвид М. Брюэр, Джон Р. Леонетти
Композитор: Джозеф Бишара
Художник: Аарон Симс, Дженнифер Спенс, Кристин М. Бурк, ...
Монтаж: Кирк М. Морри, Джеймс Ван-В ролях: Патрик Уилсон, Роуз Бирн, Тай Симпкинс, Лин Шэй, Ли Уоннелл, Энгус Сэмпсон, Барбара Херши, Эндрю Эстор, Корбетт Так, Хезер Токуини и другие-Описание: Джош и Рене переезжают со своими детьми в новый дом, но не успевают толком распаковать вещи, как начинаются странные события. Необъяснимо перемещаются предметы, в детской звучат странные звуки… Но в настоящий ужас приходят родители, когда их десятилетний сын Далтон впадает в кому. Все усилия врачей в больнице помочь мальчику безуспешны.
Несколько месяцев спустя его возвращают домой, где за несчастным ребенком ухаживают мать и сиделка. Но загадочные явления в доме продолжаются. Отчаявшиеся родители готовы обратиться за помощью к кому угодно и вскоре выясняется, что Далтон в бессознательном состоянии связан с паранормальным миром…
-

Знаете ли вы, что...

В середине фильма, в сцене в школе за спиной Джоша на доске нарисован Билли - кукла из фильмов «Пила» которые так же когда-то сняли Ли Уоннел и Джеймс Ван.

MediaInfo

Код:
Код:
General
Unique ID                        : 214315027451079760345332633675111284471 (0xA13B92A8EB9F18F8ADCA191E551B3EF7)
Complete name                    : \Insidious.2010.BDRemux.1080p.Rus.Eng.Subs.AVC.DTS-HD.MA.mkv
Format                           : Matroska
Format version                   : Version 2
File size                        : 20.2 GiB
Duration                         : 1h 42mn
Overall bit rate                 : 28.1 Mbps
Encoded date                     : UTC 2011-08-14 14:32:18
Writing application              : mkvmerge v4.0.0 ('The Stars were mine') built on Jun  6 2010 16:18:42
Writing library                  : libebml v1.0.0 + libmatroska v1.0.0
Video
ID                               : 1
Format                           : AVC
Format/Info                      : Advanced Video Codec
Format profile                   : High@L4.1
Format settings, CABAC           : Yes
Format settings, ReFrames        : 2 frames
Format settings, GOP             : M=1, N=9
Codec ID                         : V_MPEG4/ISO/AVC
Duration                         : 1h 42mn
Bit rate mode                    : Variable
Bit rate                         : 25.5 Mbps
Width                            : 1 920 pixels
Height                           : 1 080 pixels
Display aspect ratio             : 16:9
Frame rate                       : 23.976 fps
Color space                      : YUV
Chroma subsampling               : 4:2:0
Bit depth                        : 8 bits
Scan type                        : Progressive
Bits/(Pixel*Frame)               : 0.514
Stream size                      : 18.3 GiB (91%)
Title                            : Астрал/Insidious - by Juicy_J - H.264; High@L4.1; 1920x1080 (2.40:1); ~24348 kbps; 23.976 fps
Language                         : English
Audio #1
ID                               : 2
Format                           : AC-3
Format/Info                      : Audio Coding 3
Mode extension                   : CM (complete main)
Codec ID                         : A_AC3
Duration                         : 1h 42mn
Bit rate mode                    : Constant
Bit rate                         : 448 Kbps
Channel(s)                       : 6 channels
Channel positions                : Front: L C R, Side: L R, LFE
Sampling rate                    : 48.0 KHz
Bit depth                        : 16 bits
Compression mode                 : Lossy
Stream size                      : 330 MiB (2%)
Title                            : Русский (Дубляж - Творческое объединение «Дия»); AC3; CBR 448 kbps; 6 ch; 48 kHz
Language                         : Russian
Audio #2
ID                               : 3
Format                           : DTS
Format/Info                      : Digital Theater Systems
Format profile                   : MA / Core
Codec ID                         : A_DTS
Duration                         : 1h 42mn
Bit rate mode                    : Variable
Bit rate                         : 1 561 Kbps / 1 510 Kbps
Channel(s)                       : 6 channels
Channel positions                : Front: L C R, Side: L R, LFE
Sampling rate                    : 48.0 KHz
Bit depth                        : 24 bits
Compression mode                 : Lossless / Lossy
Title                            : Английский; DTS-HD MA; 2715 kbps; 6 ch; 48 kHz; 24-bit (DTS Core: 5.1 / 48 kHz / 1509 kbps / 24-bit)
Language                         : English
Text #1
ID                               : 4
Format                           : UTF-8
Codec ID                         : S_TEXT/UTF8
Codec ID/Info                    : UTF-8 Plain Text
Title                            : Русские
Language                         : Russian
Text #2
ID                               : 5
Format                           : UTF-8
Codec ID                         : S_TEXT/UTF8
Codec ID/Info                    : UTF-8 Plain Text
Title                            : Украинские
Language                         : Ukrainian
Text #3
ID                               : 6
Format                           : UTF-8
Codec ID                         : S_TEXT/UTF8
Codec ID/Info                    : UTF-8 Plain Text
Title                            : Английские SDH
Language                         : English
Text #4
ID                               : 7
Format                           : UTF-8
Codec ID                         : S_TEXT/UTF8
Codec ID/Info                    : UTF-8 Plain Text
Title                            : Английские
Language                         : English
Text #5
ID                               : 8
Format                           : UTF-8
Codec ID                         : S_TEXT/UTF8
Codec ID/Info                    : UTF-8 Plain Text
Title                            : Испанские
Language                         : Spanish
Menu
00:00:00.000                     : en:00:00:00.000
00:07:39.000                     : en:00:07:39.000
00:11:59.218                     : en:00:11:59.218
00:17:59.578                     : en:00:17:59.578
00:23:46.884                     : en:00:23:46.884
00:30:32.247                     : en:00:30:32.247
00:35:44.893                     : en:00:35:44.893
00:43:48.251                     : en:00:43:48.251
00:47:34.060                     : en:00:47:34.060
00:54:06.118                     : en:00:54:06.118
01:01:36.526                     : en:01:01:36.526
01:09:12.815                     : en:01:09:12.815
01:14:06.067                     : en:01:14:06.067
01:22:37.327                     : en:01:22:37.327
01:27:53.393                     : en:01:27:53.393
01:35:58.878                     : en:01:35:58.878
-кинопоиск | imdb-Качество: BDRemux 1080p (Insidious 2010 1080p Blu-ray AVC DTS-HD MA 5.1-HDRoad)
Формат: MKV
Видео кодек: H.264
Аудио кодек: AC3; DTS-HD MA-Видео: H.264; High@L4.1; 1920x1080 (2.40:1); ~24348 kbps; 23.976 fps
Аудио#1: Русский (Дубляж - Творческое объединение «Дия»); AC3; CBR 448 kbps; 6 ch; 48 kHz
Аудио#2: Английский; DTS-HD MA; 2715 kbps; 6 ch; 48 kHz; 24-bit (DTS Core: 5.1 / 48 kHz / 1509 kbps / 24-bit)
Формат субтитров: softsub (SRT)-

_________________
dchub://neonhub37.no-ip.info:411
Показать сообщения:    

Текущее время: Сегодня 10:48

Часовой пояс: GMT



Вы не можете начинать темы
Вы не можете отвечать на сообщения
Вы не можете редактировать свои сообщения
Вы не можете удалять свои сообщения
Вы не можете голосовать в опросах
Вы не можете прикреплять файлы к сообщениям
Вы не можете скачивать файлы