Важное объявление!
У Нас Все раздачи мультитрекерные, при нуле пиров в релизах, можете смело вставать на закачку!
 
Автор Сообщение

HUNTER

Стаж:
4 года 4 месяца
Сообщений:
56848

Репутация: 101

[+] [-]
Вне форума [Профиль] [ЛС]

Артюхин. Космонавт № 30
Дата/Год выпуска: 2016
Страна: Россия
Жанр: документальный
Продолжительность: 00:43:00
Перевод: Не требуется
Режиссер: Дамир Майкенов
Описание: Фильм посвящен биографии Героя Советского Союза Ю. Артюхина. Борт-инженер сверхсекретной военно-космической станции "Алмаз" Юрий Артюхин посвятил своей подготовке к полету в космос фактически всю жизнь. Судьба не пустила его в летчики, но наперекор ей он все равно стал космонавтом, пусть не первым, а тридцатым в нумерологии советской космонавтики, но - первым военным космонавтом.
Доп. информация: Автор сценария - Алексей Шутов
Производство ГТРК "Лотос", Астрахань
Сэмпл: http://sendfile.su/1264067
качество: TVRip
формат: AVI
Видео: XviD, 1700 Кбит/сек, 720 x 416 (1.731), 25.000 fps
Аудио: МР3, 128 Кбит/сек, 2 канала, 48,0 КГц

MediaInfo

ОбщееПолное имя : T:\Мои раздачи\Артюхин. Космонавт № 30 (2016)\Артюхин. Космонавт № 30 (2016).aviФормат : AVIФормат/Информация : Audio Video InterleaveРазмер файла : 565 МбайтПродолжительность : 43 м.Общий поток : 1838 Кбит/секПрограмма кодирования : VirtualDubMod 1.5.10.2 (build 2540/release)Библиотека кодирования : VirtualDubMod build 2540/release
ВидеоИдентификатор : 0Формат : MPEG-4 VisualПрофиль формата : Advanced Simple@L5Параметр BVOP формата : 2Параметр QPel формата : НетПараметр GMC формата : Без точки переходаПараметр матрицы формата : Default (H.263)Идентификатор кодека : XVIDИдентификатор кодека/Подсказка : XviDПродолжительность : 43 м.Битрейт : 1700 Кбит/секШирина : 720 пикселейВысота : 416 пикселейСоотношение сторон : 1,731Частота кадров : 25,000 кадров/секЦветовое пространство : YUVСубдискретизация насыщенности : 4:2:0Битовая глубина : 8 битТип развёртки : ПрогрессивнаяМетод сжатия : С потерямиБит/(Пиксели*Кадры) : 0.227Размер потока : 523 Мбайт (93%)Библиотека кодирования : XviD 1.2.1 (UTC 2008-12-04)
АудиоИдентификатор : 1Формат : MPEG AudioВерсия формата : Version 1Профиль формата : Layer 3Идентификатор кодека : 55Идентификатор кодека/Подсказка : MP3Продолжительность : 43 м.Вид битрейта : ПостоянныйБитрейт : 128 Кбит/секКаналы : 2 каналаЧастота : 48,0 КГцМетод сжатия : С потерямиРазмер потока : 39,4 Мбайт (7%)Выравнивание : Соединение по промежуткамПродолжительность промежутка : 40 мс. (1,00 видеокадр)Время предзагрузки промежутка : 504 мс.Библиотека кодирования : LAME3.98rНастройки программы : -m s -V 4 -q 2 -lowpass 17 -b 128

Скриншоты


_________________
Показать сообщения:    

Текущее время: Сегодня 05:22

Часовой пояс: GMT



Вы не можете начинать темы
Вы не можете отвечать на сообщения
Вы не можете редактировать свои сообщения
Вы не можете удалять свои сообщения
Вы не можете голосовать в опросах
Вы не можете прикреплять файлы к сообщениям
Вы не можете скачивать файлы
Наши партнеры: интернет магазин Ивановского трикотажа textilla.ru