Важное объявление!
У Нас Все раздачи мультитрекерные, при нуле пиров в релизах, можете смело вставать на закачку!
 
Автор Сообщение

HUNTER

Стаж:
4 года 4 месяца
Сообщений:
56848

Репутация: 101

[+] [-]
Вне форума [Профиль] [ЛС]

| Все релизы мультфильма || BDRip 1080p, 13.90 GB |- P R E S E N T SАртур и месть Урдалака / Arthur et la vengeance de Maltazard / Arthur And The Revenge Of Maltazard-
Страна: Франция
Жанр: мультфильм, фэнтези, семейный
Продолжительность: 01:33:41
Год выпуска: 2009
Перевод 1: Профессиональный (дублированный) Студия "Пифагор"
Перевод 2: Авторский (одноголосый закадровый) Сергей Визгунов
Русские субтитры: есть-Режиссёр: Люк Бессон / Luc Besson
Роли озвучивали: Селена Гомес, Фредди Хаймор, Стэйси Фергюсон, Снуп Догг, Миа Фэрроу, Джимми Фэллон, Уилл Ай Эм, Омар Сай, Лу Рид, Логан Миллер...
Роли дублировали: Лера Лера, Андрей Григорьев-Апполонов, Тимати, Виктор Вержбицкий, Андрей Фомин, Томас Шлеккер, Василий Бочкарёв, Александр Клюквин, Любовь Германова, Василий Дахненко, Ольга Зверева и другие- | | -Описание: Артур в восторге, потому что этой ночью заканчивается десятый лунный цикл, и он, наконец, сможет вернуться в страну минипутов, чтобы воссоединиться с Селенией. В деревне минипуты приготовили в его честь роскошный банкет, а маленькая принцесса облачилась в платье из лепестков роз. Но отец Артура именно в этот долгожданный день объявляет, что их каникулы у бабушки заканчиваются. Они уже собираются уезжать, как вдруг паук кладёт в ладонь Артуру рисунок, на котором написано слово S.O.S. Сомнений нет Селении угрожает опасность!
Артур, не задумываясь, летит к ней на выручку. Даже если столкнуться с войсками Креба, нового тирана Семи Королевств, спасти Бархлюша, сражаться с крысами, лягушками и волосатыми пауками Лишь для того, чтобы, попав в деревушку минипутов, узнать, что они вовсе не просили его о помощи! Но кто же мог приготовить такую изобретательную ловушку нашему юному герою?-Доп. информация:
- За исходный французский Blu-ray Disc спасибо SJC.
- Перевод Сергея Визгунова выполнен в рамках ресурса Widescreen (Спасибо: SJC, Multmir, Кирыч, furria62).
- Звуковая дорожка с переводом С. Визгунова получена путем наложения чистого голоса на центральный канал оригинальной (английской) DTSHD-MA 5.1 дорожки - xfiles.
- За исходную украинскую дорожку "1+1" спасибо xslim (salcom).
- Работа со звуком, кодирование видео - DFCbit.
- Большое спасибо xfiles за дельные советы и всяческое содействие и поддержку.
-Релиз от групп | and | -Сэмпл/Sample (222.7 MB, 1 минута)-Качество: BDRip 1080p
Контейнер: MKV
Видео: 1920x816 (2.353:1), 23.976 fps, AVC, ~16127 Kbps, 0.429 bits/pixel
Аудио 1: Русский, AC3, 6 ch, 48 kHz, 384 Kbps - Дубляж | Студия "Пифагор"
Аудио 2: Русский, DTS-ES-96/24, 6 ch, 96 kHz, 1510 Kbps, 24 bit - AVO | Сергей Визгунов
Аудио 3: Украинский, AC3, 2 ch, 48 kHz, 192 Kbps - Канал "1+1"
Аудио 4: English, DTS-ES-96/24, 6 ch, 96 kHz, 1510 Kbps, 24 bit
Аудио 5: Francais, DTS-ES-96/24, 6 ch, 96 kHz, 1510 Kbps, 24 bit
Субтитры: Русские, English, Francais
Навигация по главам: есть (12 не именованных глав)

MediaInfo / x264Log

x264Log

raw [info]: 1920x816p 1:1 @ 24000/1001 fps (cfr)x264 [info]: using SAR=1/1x264 [info]: using cpu capabilities: MMX2 SSE2Fast SSSE3 FastShuffle SSE4.2x264 [info]: profile High, level 4.1x264 [info]: frame I:1293 Avg QP:16.54 size:260873 PSNR Mean Y:47.40 U:48.69 V:49.64 Avg:47.89 Global:47.24x264 [info]: frame P:30126 Avg QP:17.68 size:143766 PSNR Mean Y:46.16 U:47.78 V:48.96 Avg:46.75 Global:45.89x264 [info]: frame B:103351 Avg QP:19.83 size: 64471 PSNR Mean Y:44.90 U:46.76 V:48.45 Avg:45.57 Global:44.76x264 [info]: consecutive B-frames: 2.2% 3.1% 8.9% 22.0% 19.6% 38.3% 5.0% 0.2% 0.3% 0.3%x264 [info]: mb I I16..4: 15.2% 59.6% 25.2%x264 [info]: mb P I16..4: 3.2% 30.8% 4.4% P16..4: 19.9% 20.8% 8.5% 1.9% 0.1% skip:10.4%x264 [info]: mb B I16..4: 0.9% 6.4% 0.6% B16..8: 36.5% 24.6% 3.9% direct: 7.8% skip:19.3% L0:38.6% L1:38.9% BI:22.5%x264 [info]: 8x8 transform intra:79.1% inter:46.5%x264 [info]: coded y,uvDC,uvAC intra: 94.1% 94.2% 84.0% inter: 45.8% 42.5% 22.8%x264 [info]: i16 v,h,dc,p: 23% 6% 25% 47%x264 [info]: i8 v,h,dc,ddl,ddr,vr,hd,vl,hu: 10% 9% 12% 9% 12% 11% 11% 12% 14%x264 [info]: i4 v,h,dc,ddl,ddr,vr,hd,vl,hu: 9% 8% 10% 8% 14% 12% 13% 10% 15%x264 [info]: i8c dc,h,v,p: 49% 15% 15% 20%x264 [info]: Weighted P-Frames: Y:4.4% UV:3.2%x264 [info]: ref P L0: 48.8% 13.8% 22.8% 7.1% 7.0% 0.6% 0.0%x264 [info]: ref B L0: 86.2% 10.3% 2.6% 0.9%x264 [info]: ref B L1: 96.4% 3.6%x264 [info]: SSIM Mean Y:0.9810444 (17.223db)x264 [info]: PSNR Mean Y:45.204 U:47.009 V:48.576 Avg:45.857 Global:45.010 kb/s:16127.31encoded 134770 frames, 1.63 fps, 16127.31 kb/s
GeneralUnique ID : 193544754558711817462364300423327077569 (0x919B5D2482ECA2FE985756FDF60754C1)Complete name : Arthur.II.2009.BDRip.1080p.tRuAVC.&.Multfilmy.mkvFormat : MatroskaFormat version : Version 2File size : 13.9 GiBDuration : 1h 33mnOverall bit rate : 21.2 MbpsEncoded date : UTC 2012-09-19 18:58:36Writing application : mkvmerge v4.0.0 ('The Stars were mine') built on Jun 6 2010 16:18:42Writing library : libebml v1.0.0 + libmatroska v1.0.0
VideoID : 1Format : AVCFormat/Info : Advanced Video CodecFormat profile : High@L4.1Format settings, CABAC : YesFormat settings, ReFrames : 5 framesCodec ID : V_MPEG4/ISO/AVCDuration : 1h 33mnBit rate : 16.1 MbpsWidth : 1 920 pixelsHeight : 816 pixelsDisplay aspect ratio : 2.35:1Frame rate : 23.976 fpsColor space : YUVChroma subsampling : 4:2:0Bit depth : 8 bitsScan type : ProgressiveBits/(Pixel*Frame) : 0.429Stream size : 10.6 GiB (74%)Title : NTSC, 1920x816 (2.353:1), BDRip 1080p - tRuAVC & Multfilmy [DFCbit]Writing library : x264 core 125 r2208kMod d9d2288Encoding settings : cabac=1 / ref=5 / deblock=1:-1:-1 / analyse=0x3:0x133 / me=umh / subme=11 / psy=1 / fade_compensate=0.00 / psy_rd=0.60:0.00 / mixed_ref=1 / me_range=48 / chroma_me=1 / trellis=2 / 8x8dct=1 / cqm=0 / deadzone=21,11 / fast_pskip=0 / chroma_qp_offset=-2 / threads=6 / lookahead_threads=1 / sliced_threads=0 / nr=0 / decimate=1 / interlaced=0 / bluray_compat=0 / constrained_intra=0 / bframes=9 / b_pyramid=2 / b_adapt=2 / b_bias=0 / direct=1 / weightb=1 / open_gop=0 / weightp=2 / keyint=250 / keyint_min=23 / scenecut=40 / intra_refresh=0 / rc_lookahead=70 / rc=crf / mbtree=0 / crf=18.1080 / qcomp=0.80 / qpmin=0 / qpmax=69 / qpstep=4 / vbv_maxrate=50000 / vbv_bufsize=62500 / crf_max=0.0 / nal_hrd=none / ip_ratio=1.40 / pb_ratio=1.30 / aq=3:0.90Language : FrenchDefault : YesForced : NoColor primaries : BT.709-5, BT.1361, IEC 61966-2-4, SMPTE RP177Transfer characteristics : BT.709-5, BT.1361Matrix coefficients : BT.709-5, BT.1361, IEC 61966-2-4 709, SMPTE RP177
Audio #1ID : 2Format : AC-3Format/Info : Audio Coding 3Mode extension : CM (complete main)Codec ID : A_AC3Duration : 1h 33mnBit rate mode : ConstantBit rate : 384 KbpsChannel(s) : 6 channelsChannel positions : Front: L C R, Side: L R, LFESampling rate : 48.0 KHzBit depth : 16 bitsCompression mode : LossyStream size : 257 MiB (2%)Title : AC3, 6 ch, 48 kHz, 384 kbps, DubbingLanguage : RussianDefault : YesForced : No
Audio #2ID : 3Format : DTSFormat/Info : Digital Theater SystemsFormat profile : 96/24 / CoreCodec ID : A_DTSDuration : 1h 33mnBit rate mode : ConstantBit rate : 1 510 KbpsChannel(s) : 6 channelsChannel positions : Front: L C R, Side: L R, LFESampling rate : 96.0 KHz / 48.0 KHzBit depth : 24 bitsCompression mode : LossyStream size : 1 012 MiB (7%)Title : DTS-ES-96/24, 6 ch, 96 kHz, 1510 kbps, 24 bit, AVO (С. Визгунов)Language : RussianDefault : NoForced : No
Audio #3ID : 4Format : AC-3Format/Info : Audio Coding 3Mode extension : CM (complete main)Codec ID : A_AC3Duration : 1h 33mnBit rate mode : ConstantBit rate : 192 KbpsChannel(s) : 2 channelsChannel positions : Front: L RSampling rate : 48.0 KHzBit depth : 16 bitsCompression mode : LossyStream size : 129 MiB (1%)Title : AC3, 2 ch, 48 kHz, 192 kbps, [канал 1+1]Language : UkrainianDefault : NoForced : No
Audio #4ID : 5Format : DTSFormat/Info : Digital Theater SystemsFormat profile : 96/24 / CoreCodec ID : A_DTSDuration : 1h 33mnBit rate mode : ConstantBit rate : 1 510 KbpsChannel(s) : 6 channelsChannel positions : Front: L C R, Side: L R, LFESampling rate : 96.0 KHz / 48.0 KHzBit depth : 24 bitsCompression mode : LossyStream size : 1 012 MiB (7%)Title : DTS-ES-96/24, 6 ch, 96 kHz, 1510 kbps, 24 bit, OriginalLanguage : EnglishDefault : NoForced : No
Audio #5ID : 6Format : DTSFormat/Info : Digital Theater SystemsFormat profile : 96/24 / CoreCodec ID : A_DTSDuration : 1h 33mnBit rate mode : ConstantBit rate : 1 510 KbpsChannel(s) : 6 channelsChannel positions : Front: L C R, Side: L R, LFESampling rate : 96.0 KHz / 48.0 KHzBit depth : 24 bitsCompression mode : LossyStream size : 1 012 MiB (7%)Title : DTS-ES-96/24, 6 ch, 96 kHz, 1510 kbps, 24 bit, DubbingLanguage : FrenchDefault : NoForced : No
Text #1ID : 7Format : UTF-8Codec ID : S_TEXT/UTF8Codec ID/Info : UTF-8 Plain TextTitle : SRT, FullLanguage : RussianDefault : NoForced : No
Text #2ID : 8Format : UTF-8Codec ID : S_TEXT/UTF8Codec ID/Info : UTF-8 Plain TextTitle : SRT, FullLanguage : EnglishDefault : NoForced : No
Text #3ID : 9Format : UTF-8Codec ID : S_TEXT/UTF8Codec ID/Info : UTF-8 Plain TextTitle : SRT, FullLanguage : FrenchDefault : NoForced : No
Menu00:00:00.000 : en:Chapter 100:05:50.350 : en:Chapter 200:19:58.864 : en:Chapter 300:30:05.262 : en:Chapter 400:36:15.590 : en:Chapter 500:42:41.184 : en:Chapter 600:49:31.886 : en:Chapter 700:53:38.048 : en:Chapter 801:01:04.953 : en:Chapter 901:12:07.365 : en:Chapter 1001:18:31.123 : en:Chapter 1101:26:45.242 : en:Chapter 12

Скриншоты

BDRip 1080p



Source Blu-Ray


Bitrate Viewer

-Данный релиз не будет воспроизводиться на бытовых плеерах не поддерживающих MKV и H.264Обсуждение релизов в AVC формате || Свежие AVC рипы-Приятного просмотра!Просьба к скачавшим: не уходите с раздачи!

_________________
Показать сообщения:    

Текущее время: Сегодня 05:27

Часовой пояс: GMT



Вы не можете начинать темы
Вы не можете отвечать на сообщения
Вы не можете редактировать свои сообщения
Вы не можете удалять свои сообщения
Вы не можете голосовать в опросах
Вы не можете прикреплять файлы к сообщениям
Вы не можете скачивать файлы
Наши партнеры: интернет магазин Ивановского трикотажа textilla.ru