Важное объявление!
У Нас Все раздачи мультитрекерные, при нуле пиров в релизах, можете смело вставать на закачку!
 
Автор Сообщение

HUNTER

Стаж:
4 года 4 месяца
Сообщений:
56765

Репутация: 101

[+] [-]
Вне форума [Профиль] [ЛС]

Артур и война двух миров / Arthur et la guerre des deux mondes
Страна: Франция
Жанр: фэнтези, приключения, семейный
Продолжительность: 01:41:09
Год выпуска: 2010
Перевод: Профессиональный (дублированный)
Русские субтитры: есть
Режиссёр: Люк Бессон / Luc Besson
Роли озвучивали:
Селена Гомес
Фредди Хаймор
Джимми Фэллон
Миа Фэрроу
Игги Поп
Роберт Стэнтон
Лу Рид
Пенни Бальфур
Жан-Поль Рув
Майк Пауэрс
Роли дублировали:
Филипп Бледный
Диомид Виноградов
Владимир Зайцев
Мария Кожевникова
Дмитрий Курта
Описание:
Какие дьявольские планы собирается осуществить Урдалак, чтобы завоевать новый мир, в который он переместился обманным путем? Как Артур, оставшийся в мире минипутов, сможет победить жестокого Ужасного У? Чтобы сохранить любовь прекрасной принцессы Селении, Артур готов вступить в бой против Урдалака как в мире минипутов, так и в большом реальном мире…
Доп. информация:
5.708 (1 518)
5.5/10 (429 votes)
Качество: BDRip, исходник - Blu-ray disc 1080р
Формат: AVI
Видео: 720x304 (2.37:1), 23.976 fps, XviD build 61 ~1675 kbps avg, 0.32 bit/pixel
Аудио 1: 48 kHz, AC3 Dolby Digital, 3/2 (L,C,R,l,r) + LFE ch, ~384 kbps - Dub
Аудио 2: 48 kHz, AC3 Dolby Digital, 3/2 (L,C,R,l,r) + LFE ch, ~384 kbps - Eng - отдельно
Субтитры: русские, английские

MediaInfo

ОбщееПолное имя : ...Артур и война двух миров_1.46\Артур и война двух миров_1.46.aviФормат : AVIФормат/Информация : Audio Video InterleaveРазмер файла : 1,46 ГбайтПродолжительность : 1 ч. 41 м.Общий поток : 2069 Кбит/секПрограмма кодирования : VirtualDubMod 1.5.10.3 | www.virtualdub-fr.org || (build 2550/release)Библиотека кодирования : VirtualDubMod build 2550/release
ВидеоИдентификатор : 0Формат : MPEG-4 VisualПрофиль формата : Advanced Simple@L5Параметр BVOP формата : 1Параметр QPel формата : НетПараметр GMC формата : Без точки переходаПараметр матрицы формата : ВыборочнаяИдентификатор кодека : XVIDИдентификатор кодека/Подсказка : XviDПродолжительность : 1 ч. 41 м.Битрейт : 1676 Кбит/секШирина : 720 пикс.Высота : 304 пикс.Соотношение сторон : 2,35:1Частота кадров : 23,976 кадр/секЦветовое пространство : YUVПодвыборка цветности : 4:2:0Битовая глубина : 8 битТип развёртки : ПрогрессивнаяМетод сжатия : С потерямиБит/(Пиксели*Кадры) : 0.319Размер потока : 1,18 Гбайт (81%)Библиотека кодирования : XviD 61
АудиоИдентификатор : 1Формат : AC-3Формат/Информация : Audio Coding 3Расширение режима : CM (complete main)Идентификатор кодека : 2000Продолжительность : 1 ч. 41 м.Вид битрейта : ПостоянныйБитрейт : 384 Кбит/секКанал(ы) : 6 канала(ов)Расположение каналов : Front: L C R, Side: L R, LFEЧастота : 48,0 КГцБитовая глубина : 16 битМетод сжатия : С потерямиРазмер потока : 278 Мбайт (19%)Выравнивание : Разделение по промежуткамПродолжительность промежутка : 42 мс. (1,00 видеокадр)Время предзагрузки промежутка : 500 ms

Скриншот c названием фильма

Скриншоты


_________________
Показать сообщения:    

Текущее время: Сегодня 05:43

Часовой пояс: GMT



Вы не можете начинать темы
Вы не можете отвечать на сообщения
Вы не можете редактировать свои сообщения
Вы не можете удалять свои сообщения
Вы не можете голосовать в опросах
Вы не можете прикреплять файлы к сообщениям
Вы не можете скачивать файлы