Важное объявление!
У Нас Все раздачи мультитрекерные, при нуле пиров в релизах, можете смело вставать на закачку!
 
Автор Сообщение

HUNTER

Стаж:
4 года 4 месяца
Сообщений:
56808

Репутация: 101

[+] [-]
Вне форума [Профиль] [ЛС]

Арнольд!
Hey Arnold! The Movie
«A Big Problem Calls For A Big Head»
Страна: США
Жанр: мультфильм, комедия, приключения, семейный
Продолжительность: 01:15:46
Год выпуска: 2002-Перевод: Профессиональный (Дублированный) CTC
Перевод: Профессиональный (Дублированный) THT
Перевод: Профессиональный (Многоголосый закадровый) Премьер Видео
Русские субтитры: нет
Режиссёр: Так Такер / Tuck Tucker-Роли озвучивали: Спенсер Клейн, Франческа Смит, Дэн Кастелланета, Тресс МакНилл, Пол Сорвино, Дженнифер Джейсон Ли, Кристофер Ллойд, Винсент Скьявелли, Морис ЛаМарш, Кэт Сауси
Роли дублировали: Ирина Гришина, Андрей Бархударов, Вячеслав Баранов, Дмитрий Филимонов, Александр Рыжков-Описание: У безжалостного магната родился злодейский план: снести родной квартал Арнольда и выстроить на его месте огромный супермаркет. Время пошло, и кто-то должен встать на защиту уютного уголка. И этим кем-то станет… Арнольд.
С хвостатой занудой Хельгой, тайно влюбленной в него, и с лучшим другом Джеральдом Арнольд устраивает забастовку, чтобы вернуть слову «прогресс» его истинное значение — находить новое очарование в старом добром квартале, который он называет своим «домом».-Релиз: | | -- Большое спасибо Lexa1988-L1 за все дороги!
- Большое спасибо -Azureus- за покупку, работу с WEB-DL и звуком !-Качество: WEB-DLRip
Формат: AVI
Видео: 704x400 (1.76:1), 23,976 fps, XviD 66 ~2 172 kbps avg, 0.32 bit/pixel
Аудио: 48 kHz, AC3 Dolby Digital, 2/0 (L,R) ch, ~192 kbps |CTC|
Аудио: 48 kHz, AC3 Dolby Digital, 2/0 (L,R) ch, ~192 kbps |THT|
Аудио: 48 kHz, AC3 Dolby Digital, 2/0 (L,R) ch, ~192 kbps |MVO|
Аудио: 48 kHz, AC3 Dolby Digital, 3/2 (L,C,R,l,r) + LFE ch, ~448 kbps avg |ENG| отдельно
Субтитры: English [srt]

MI


General
Complete name : D:\incarcare\rip gata\Арнольд.2002.WEB-DLRip[dragomire]_rutracker.org\Арнольд.2002.WEB-DLRip[dragomire]_rutracker.org.avi
Format : AVI
Format/Info : Audio Video Interleave
File size : 1.46 GiB
Duration : 1h 15mn
Overall bit rate : 2 768 Kbps
Writing application : VirtualDubMod 1.5.10.2 (build 2540/release)
Writing library : VirtualDubMod build 2540/release
Video
ID : 0
Format : MPEG-4 Visual
Format profile : Advanced Simple@L5
Format settings, BVOP : 1
Format settings, QPel : No
Format settings, GMC : No warppoints
Format settings, Matrix : Custom
Codec ID : XVID
Codec ID/Hint : XviD
Duration : 1h 15mn
Bit rate : 2 172 Kbps
Width : 704 pixels
Height : 400 pixels
Display aspect ratio : 16:9
Frame rate : 23.976 fps
Color space : YUV
Chroma subsampling : 4:2:0
Bit depth : 8 bits
Scan type : Progressive
Compression mode : Lossy
Bits/(Pixel*Frame) : 0.322
Stream size : 1.15 GiB (78%)
Writing library : XviD 66
Audio #1
ID : 1
Format : AC-3
Format/Info : Audio Coding 3
Mode extension : CM (complete main)
Format settings, Endianness : Big
Codec ID : 2000
Duration : 1h 15mn
Bit rate mode : Constant
Bit rate : 192 Kbps
Channel(s) : 2 channels
Channel positions : Front: L R
Sampling rate : 48.0 KHz
Compression mode : Lossy
Stream size : 104 MiB (7%)
Alignment : Split accross interleaves
Interleave, duration : 42 ms (1.00 video frame)
Interleave, preload duratio : 500 ms
Audio #2
ID : 2
Format : AC-3
Format/Info : Audio Coding 3
Mode extension : CM (complete main)
Format settings, Endianness : Big
Codec ID : 2000
Duration : 1h 15mn
Bit rate mode : Constant
Bit rate : 192 Kbps
Channel(s) : 2 channels
Channel positions : Front: L R
Sampling rate : 48.0 KHz
Compression mode : Lossy
Stream size : 104 MiB (7%)
Alignment : Split accross interleaves
Interleave, duration : 42 ms (1.00 video frame)
Interleave, preload duratio : 500 ms
Audio #3
ID : 3
Format : AC-3
Format/Info : Audio Coding 3
Mode extension : CM (complete main)
Format settings, Endianness : Big
Codec ID : 2000
Duration : 1h 15mn
Bit rate mode : Constant
Bit rate : 192 Kbps
Channel(s) : 2 channels
Channel positions : Front: L R
Sampling rate : 48.0 KHz
Compression mode : Lossy
Stream size : 104 MiB (7%)
Alignment : Split accross interleaves
Interleave, duration : 42 ms (1.00 video frame)
Interleave, preload duratio : 500 ms

Скриншоты


_________________
Показать сообщения:    

Текущее время: Сегодня 12:00

Часовой пояс: GMT



Вы не можете начинать темы
Вы не можете отвечать на сообщения
Вы не можете редактировать свои сообщения
Вы не можете удалять свои сообщения
Вы не можете голосовать в опросах
Вы не можете прикреплять файлы к сообщениям
Вы не можете скачивать файлы