Важное объявление!
У Нас Все раздачи мультитрекерные, при нуле пиров в релизах, можете смело вставать на закачку!
 
Автор Сообщение

HUNTER

Стаж:
4 года 4 месяца
Сообщений:
56808

Репутация: 101

[+] [-]
Вне форума [Профиль] [ЛС]

Армагеддец / The World's End«Убойные напитки. Отличная закуска. На десерт – конец света»-
Страна: Великобритания
Жанр: фантастика, боевик, комедия
Год выпуска: 2013
Продолжительность: 01:49:07-Перевод: Профессиональный (полное дублирование) Blu-ray CEE
Оригинальная аудиодорожка №1: English
Оригинальная аудиодорожка №2: English Feature Commentary with Writers Edgar Wright & Simon
Оригинальная аудиодорожка №3: English Technical Commentary with Director Edgar Wright and Director of Photography Bill Pope
Оригинальная аудиодорожка №4: English Cast Commentary with Simon Pegg, Nick Frost and Paddy Considine
Cубтитры: Russian (Forced, Blu-ray CEE), Russian (Blu-ray CEE), Ukrainian (Blu-ray CEE), English, English (SDH), English (SDH-COLORED)-Режиссер: Эдгар Райт / Edgar Wright
В ролях: Саймон Пегг, Ник Фрост, Пэдди Консидайн, Мартин Фриман, Эдди Марсан, Розамунд Пайк, Пирс Броснан, Дэвид Брэдли, Стив Орам, Томас Ло-Описание: Их подвиг был бы увековечен в Книге рекордов Гиннесса, если бы они знали, что Гиннесс — это не только пиво. Пятеро друзей ставят себе высокую цель — организовать грандиозный забег по барам. Опасности подстерегают их на каждом шагу: красотка, от которой сходила с ума вся школа, так и тянет налево, в то время как справа надвигается таинственная угроза. В результате алкомарафон плавно переходит в реальный Армагеддец…-IMDB | КиноПоиск | Сэмпл-Качество видео: BDRip 720p | исх. The.Worlds.End.2013.COMPLETE.BLURAY-PCH
Формат видео: MKV-Видео: 1280x544 at 23.976 fps, x264@L4.1, 2pass, ~7355 kbps avg
Аудио №1: 48 kHz, DTS, 3/2 (L,C,R,l,r) + LFE ch, ~768.00 kbps avg | Профессиональный (полное дублирование) Blu-ray CEE
Аудио №2: 48 kHz, DTS, 3/2 (L,C,R,l,r) + LFE ch, ~1536.00 kbps avg | English
Аудио №3: 48 kHz, AC3, 2/0 (L,R) ch, ~192.00 kbps avg | English Feature Commentary with Writers Edgar Wright & Simon
Аудио №4: 48 kHz, AC3, 2/0 (L,R) ch, ~192.00 kbps avg | English Technical Commentary with Director Edgar Wright and Director of Photography Bill Pope
Аудио №5: 48 kHz, AC3, 2/0 (L,R) ch, ~192.00 kbps avg | English Cast Commentary with Simon Pegg, Nick Frost and Paddy Considine-Формат субтитров: softsub (srt)
Главы: есть-

MediaInfo

General
Unique ID : 224236542770130757469880051490493234970 (0xA8B26321CFF9F2FBB664BC71063AFF1A)
Complete name : D:\Фильмы\The.World's.End.2013.720p.BluRay.DTS.Rus.4xEng.HDCLUB.mkv
Format : Matroska
Format version : Version 2
File size : 7.78 GiB
Duration : 1h 49mn
Overall bit rate : 10.2 Mbps
Movie name : The World's End (2013) - Release for HDCLUB
Encoded date : UTC 2014-01-16 21:39:48
Writing application : mkvmerge v3.4.0 ('Rapunzel') built on May 15 2010 09:38:20
Writing library : libebml v0.8.0 + libmatroska v0.9.0
Video
ID : 1
Format : AVC
Format/Info : Advanced Video Codec
Format profile : High@L4.1
Format settings, CABAC : Yes
Format settings, ReFrames : 12 frames
Codec ID : V_MPEG4/ISO/AVC
Duration : 1h 49mn
Bit rate : 7 355 Kbps
Width : 1 280 pixels
Height : 544 pixels
Display aspect ratio : 2.35:1
Frame rate mode : Constant
Frame rate : 23.976 fps
Color space : YUV
Chroma subsampling : 4:2:0
Bit depth : 8 bits
Scan type : Progressive
Bits/(Pixel*Frame) : 0.441
Stream size : 5.45 GiB (70%)
Title : The World's End (2013) - Release for HDCLUB
Writing library : x264 core 133 r2334 a3ac64b
Encoding settings : cabac=1 / ref=12 / deblock=1:-3:-3 / analyse=0x3:0x113 / me=tesa / subme=10 / psy=1 / psy_rd=1.05:0.10 / mixed_ref=1 / me_range=32 / chroma_me=1 / trellis=2 / 8x8dct=1 / cqm=0 / deadzone=21,11 / fast_pskip=0 / chroma_qp_offset=-5 / threads=12 / lookahead_threads=2 / sliced_threads=0 / nr=0 / decimate=0 / interlaced=0 / bluray_compat=0 / constrained_intra=0 / bframes=8 / b_pyramid=2 / b_adapt=2 / b_bias=0 / direct=3 / weightb=1 / open_gop=0 / weightp=2 / keyint=250 / keyint_min=23 / scenecut=40 / intra_refresh=0 / rc=2pass / mbtree=0 / bitrate=7355 / ratetol=1.0 / qcomp=0.85 / qpmin=0 / qpmax=69 / qpstep=4 / cplxblur=20.0 / qblur=0.5 / ip_ratio=1.20 / pb_ratio=1.30 / aq=1:0.85
Language : English
Default : Yes
Forced : No
Audio #1
ID : 2
Format : DTS
Format/Info : Digital Theater Systems
Mode : 16
Format settings, Endianness : Big
Codec ID : A_DTS
Duration : 1h 49mn
Bit rate mode : Constant
Bit rate : 768 Kbps
Channel count : 6 channels
Channel positions : Front: L C R, Side: L R, LFE
Sampling rate : 48.0 KHz
Bit depth : 24 bits
Compression mode : Lossy
Stream size : 599 MiB (8%)
Title : DTS 5.1 @ 768 kbps - DUB, Blu-ray CEE
Language : Russian
Default : Yes
Forced : No
Audio #2
ID : 3
Format : DTS
Format/Info : Digital Theater Systems
Mode : 16
Format settings, Endianness : Big
Codec ID : A_DTS
Duration : 1h 49mn
Bit rate mode : Constant
Bit rate : 1 509 Kbps
Channel count : 6 channels
Channel positions : Front: L C R, Side: L R, LFE
Sampling rate : 48.0 KHz
Bit depth : 24 bits
Compression mode : Lossy
Delay relative to video : 11ms
Stream size : 1.15 GiB (15%)
Title : DTS 5.1 @ 1536 kbps
Language : English
Default : No
Forced : No
Audio #3
ID : 4
Format : AC-3
Format/Info : Audio Coding 3
Format profile : Dolby Digital
Mode extension : CM (complete main)
Format settings, Endianness : Big
Codec ID : A_AC3
Duration : 1h 49mn
Bit rate mode : Constant
Bit rate : 192 Kbps
Channel count : 2 channels
Channel positions : Front: L R
Sampling rate : 48.0 KHz
Bit depth : 16 bits
Compression mode : Lossy
Stream size : 150 MiB (2%)
Title : AC3 2.0 @ 192 kbps - Feature Commentary with Writers Edgar Wright & Simon
Language : English
Default : No
Forced : No
Audio #4
ID : 5
Format : AC-3
Format/Info : Audio Coding 3
Format profile : Dolby Digital
Mode extension : CM (complete main)
Format settings, Endianness : Big
Codec ID : A_AC3
Duration : 1h 49mn
Bit rate mode : Constant
Bit rate : 192 Kbps
Channel count : 2 channels
Channel positions : Front: L R
Sampling rate : 48.0 KHz
Bit depth : 16 bits
Compression mode : Lossy
Stream size : 150 MiB (2%)
Title : AC3 2.0 @ 192 kbps - Technical Commentary with Director Edgar Wright and Director of Photography Bill Pope
Language : English
Default : No
Forced : No
Audio #5
ID : 6
Format : AC-3
Format/Info : Audio Coding 3
Format profile : Dolby Digital
Mode extension : CM (complete main)
Format settings, Endianness : Big
Codec ID : A_AC3
Duration : 1h 49mn
Bit rate mode : Constant
Bit rate : 192 Kbps
Channel count : 2 channels
Channel positions : Front: L R
Sampling rate : 48.0 KHz
Bit depth : 16 bits
Compression mode : Lossy
Stream size : 150 MiB (2%)
Title : AC3 2.0 @ 192 kbps - Cast Commentary with Simon Pegg, Nick Frost and Paddy Considine
Language : English
Default : No
Forced : No
Text #1
ID : 7
Format : UTF-8
Codec ID : S_TEXT/UTF8
Codec ID/Info : UTF-8 Plain Text
Title : Forced
Language : Russian
Default : Yes
Forced : No
Text #2
ID : 8
Format : UTF-8
Codec ID : S_TEXT/UTF8
Codec ID/Info : UTF-8 Plain Text
Title : Blu-ray CEE
Language : Russian
Default : No
Forced : No
Text #3
ID : 9
Format : UTF-8
Codec ID : S_TEXT/UTF8
Codec ID/Info : UTF-8 Plain Text
Title : Blu-ray CEE
Language : Ukrainian
Default : No
Forced : No
Text #4
ID : 10
Format : UTF-8
Codec ID : S_TEXT/UTF8
Codec ID/Info : UTF-8 Plain Text
Language : English
Default : No
Forced : No
Text #5
ID : 11
Format : UTF-8
Codec ID : S_TEXT/UTF8
Codec ID/Info : UTF-8 Plain Text
Title : SDH
Language : English
Default : No
Forced : No
Text #6
ID : 12
Format : UTF-8
Codec ID : S_TEXT/UTF8
Codec ID/Info : UTF-8 Plain Text
Title : SDH-COLORED
Language : English
Default : No
Forced : No
Menu
00:00:00.000 : en:
00:05:38.296 : en:
00:10:33.007 : en:
00:15:34.767 : en:
00:19:56.695 : en:
00:25:23.980 : en:
00:30:07.180 : en:
00:36:09.750 : en:
00:42:40.266 : en:
00:46:17.232 : en:
00:50:20.017 : en:
00:57:20.728 : en:
01:02:29.203 : en:
01:06:30.736 : en:
01:12:17.124 : en:
01:18:37.003 : en:
01:23:51.192 : en:
01:26:45.783 : en:
01:35:16.752 : en:
01:42:20.217 : en:

Скриншоты

Дополнительно

Сохранены оригинальные чаптеры как на Blu-ray.
Рип от iNK

_________________
Показать сообщения:    

Текущее время: Сегодня 09:12

Часовой пояс: GMT



Вы не можете начинать темы
Вы не можете отвечать на сообщения
Вы не можете редактировать свои сообщения
Вы не можете удалять свои сообщения
Вы не можете голосовать в опросах
Вы не можете прикреплять файлы к сообщениям
Вы не можете скачивать файлы