Важное объявление!
У Нас Все раздачи мультитрекерные, при нуле пиров в релизах, можете смело вставать на закачку!
 
Автор Сообщение

HUNTER

Стаж:
4 года 4 месяца
Сообщений:
56848

Репутация: 101

[+] [-]
Вне форума [Профиль] [ЛС]

Апрель в Париже / April in Paris-
Год выпуска: 1952
Страна: США
Жанр: мюзикл, мелодрама, комедия
Продолжительность: 01:40:07
Перевод: Профессиональный (многоголосый закадровый) Селена Интернешнл по заказу т/к "Домашний"
Оригинальная аудиодорожка: Английская
Cубтитры: Английские-Режиссер: Дэвид Батлер / David Butler
В ролях: Дорис Дэй, Рэй Болджер, Клод Дофен, Ив Миллер, Джордж Гивот, Пол Харви, Херберт Фаржеон, Уилсон Миллар, Джон Элвин-Описание:
Вашингтон. Очень важный и очень официозный помощник государственного секретаря по культуре Сэм Путнэм обнаруживает, что совершил непоправимую ошибку. Он отправил приглашение на участие в качестве представителя американского театра на фестивале искусств, проходящий в Париже, не знаменитой мисс Этель Барримор, а никому не известной танцовщице и хористке Бродвейского варьете мисс Этель Джексон.
Поняв что за эту оплошность его могут уволить, Сэм, бросив все дела, летит в Нью-Йорк уговаривать Этель вернуть приглашение и не ездить в Париж. Но упрямая хористка, узнав всю историю «казуса», наотрез отказывается следовать советам чиновника и собирает чемоданы, спеша к отплытию трансконтинентального лайнера…-За дорожку спасибо olegsa.
| IMDb | Сэмпл-Качество: WEB-DL 720p (SbR)
Контейнер: MKV
Видео: AVC, 982x720 (1.37:1), 23.976 fps, 4222 kbps
Аудио 1: Русский AC3, 2.0, 48 kHz, 192 kbps
Аудио 2: Английский AC3, 2.0, 48 kHz, 192 kbps
Аудио 3: Английский AAC, 2.0, 48 kHz, 116 kbps
Формат субтитров: softsub (SRT)
СкриншотыMI
General
Unique ID : 245369693312017888669867377367745159028 (0xB8987BE614277EBDA34D29D32EFDDF74)
Complete name : April.In.Paris.1952.720p.WEB-DL.H.264-SbR.mkv
Format : Matroska
Format version : Version 2
File size : 3.30 GiB
Duration : 1h 40mn
Overall bit rate : 4 725 Kbps
Movie name : April In Paris / Апрель в Париже (1952) – RuTracker
Encoded date : UTC 2014-05-30 15:28:42
Writing application : mkvmerge v6.1.0 ('Old Devil') built on Mar 2 2013 14:32:37
Writing library : libebml v1.3.0 + libmatroska v1.4.0
Attachment : Yes
Video
ID : 1
Format : AVC
Format/Info : Advanced Video Codec
Format profile : High@L3.1
Format settings, CABAC : No
Format settings, ReFrames : 2 frames
Codec ID : V_MPEG4/ISO/AVC
Duration : 1h 40mn
Width : 982 pixels
Height : 720 pixels
Display aspect ratio : 4:3
Frame rate mode : Constant
Frame rate : 23.976 fps
Color space : YUV
Chroma subsampling : 4:2:0
Bit depth : 8 bits
Scan type : Progressive
Title : April.In.Paris.1952.720p.WEB-DL.AAC2.0.H.264-SbR
Language : English
Default : Yes
Forced : No
Color primaries : BT.709
Transfer characteristics : BT.709
Matrix coefficients : BT.709
Audio #1
ID : 2
Format : AC-3
Format/Info : Audio Coding 3
Mode extension : CM (complete main)
Format settings, Endianness : Big
Codec ID : A_AC3
Duration : 1h 40mn
Bit rate mode : Constant
Bit rate : 192 Kbps
Channel(s) : 2 channels
Channel positions : Front: L R
Sampling rate : 48.0 KHz
Bit depth : 16 bits
Compression mode : Lossy
Stream size : 137 MiB (4%)
Title : MVO – Селена Интернешнл
Language : Russian
Default : Yes
Forced : No
Audio #2
ID : 3
Format : AC-3
Format/Info : Audio Coding 3
Mode extension : CM (complete main)
Format settings, Endianness : Big
Codec ID : A_AC3
Duration : 1h 40mn
Bit rate mode : Constant
Bit rate : 192 Kbps
Channel(s) : 1 channel
Channel positions : Front: C
Sampling rate : 48.0 KHz
Bit depth : 16 bits
Compression mode : Lossy
Stream size : 137 MiB (4%)
Title : Original (DVD)
Language : English
Default : No
Forced : No
Audio #3
ID : 4
Format : AAC
Format/Info : Advanced Audio Codec
Format profile : LC
Codec ID : A_AAC
Duration : 1h 40mn
Channel(s) : 2 channels
Channel positions : Front: L R
Sampling rate : 48.0 KHz
Compression mode : Lossy
Title : Original (iTunes)
Language : English
Default : No
Forced : No
Text
ID : 5
Format : UTF-8
Codec ID : S_TEXT/UTF8
Codec ID/Info : UTF-8 Plain Text
Language : English
Default : No
Forced : No
Menu
00:00:00.000 : en:Chapter 1
00:10:49.000 : en:Chapter 2
00:19:53.000 : en:Chapter 3
00:30:36.000 : en:Chapter 4
00:40:26.000 : en:Chapter 5
00:51:33.000 : en:Chapter 6
01:00:04.000 : en:Chapter 7
01:09:20.000 : en:Chapter 8
01:20:26.000 : en:Chapter 9
01:30:37.000 : en:Chapter 10

_________________
Показать сообщения:    

Текущее время: Сегодня 22:54

Часовой пояс: GMT



Вы не можете начинать темы
Вы не можете отвечать на сообщения
Вы не можете редактировать свои сообщения
Вы не можете удалять свои сообщения
Вы не можете голосовать в опросах
Вы не можете прикреплять файлы к сообщениям
Вы не можете скачивать файлы
Наши партнеры: интернет магазин Ивановского трикотажа textilla.ru