Важное объявление!
У Нас Все раздачи мультитрекерные, при нуле пиров в релизах, можете смело вставать на закачку!
 
Автор Сообщение

HUNTER

Стаж:
4 года 4 месяца
Сообщений:
56842

Репутация: 101

[+] [-]
Вне форума [Профиль] [ЛС]

Аноним / Anonymous
Страна: Германия, Великобритания
Жанр: триллер, драма
Год выпуска: 2011
Продолжительность: 02:09:58
Перевод: Профессиональный (дублированный) | BD CEE
Cубтитры: русские, английские
Оригинальная аудиодорожка: английский
Режиссер: Роланд Эммерих
В ролях: Рис Иванс, Ванесса Редгрейв, Себастьян Фернандес-Арместо, Рейф Сполл, Дэвид Тьюлис, Эдвард Хогг, Ксавьер Сэмюэл, Сэм Рейд, Джейми Кэмпбелл Бауэр, Джоэли Ричардсон
Описание: Фильм даст совершенно неожиданный ответ на извечный вопрос: а кем же "был или не был" Шекспир, и кто на самом деле скрывается за этим всемирно известным именем великого человека?..

Тип релиза: BDRip 720p (от DON) | sample
Контейнер: MKV
Видео кодек: x264
Видео: AVC 1280x544 (2.35:1), 23.976 fps, ~4170 Kbps, 0.25 bit/pixel
Аудио #1: Russian AC3 6ch 48kHz 640Kbps | Dub
Аудио #2: English AC3 6ch 48kHz 640Kbps | Original
Формат субтитров: softsub (SRT)
Главы: есть

MediaInfo | x264

x264

x264 [info]: frame I:1817 Avg QP:12.62 size:109826
x264 [info]: frame P:38636 Avg QP:14.15 size: 42294
x264 [info]: frame B:146506 Avg QP:15.24 size: 15237
x264 [info]: consecutive B-frames: 1.6% 2.0% 4.7% 30.3% 14.4% 24.7% 6.5% 12.0% 3.8%
encoded 186959 frames, 2.41 fps, 4171.45 kb/s
General
Complete name : E:\...\Anonymous.2011.720p.BluRay.x264.DD5.1.Rus.Eng-DON.mkv
Format : Matroska
Format version : Version 2
File size : 4.95 GiB
Duration : 2h 9mn
Overall bit rate : 5 454 Kbps
Movie name : Anonymous.2011.720p.BluRay.x264.DD5.1.Rus.Eng-DON
Encoded date : UTC 2013-12-07 21:33:26
Writing application : mkvmerge v6.5.0 ('Isn't she lovely') built on Oct 20 2013 12:50:05
Writing library : libebml v1.3.0 + libmatroska v1.4.1
Video
ID : 1
Format : AVC
Format/Info : Advanced Video Codec
Format profile : High@L4.1
Format settings, CABAC : Yes
Format settings, ReFrames : 12 frames
Codec ID : V_MPEG4/ISO/AVC
Duration : 2h 9mn
Bit rate : 4 173 Kbps
Width : 1 280 pixels
Height : 544 pixels
Display aspect ratio : 2.35:1
Frame rate mode : Constant
Frame rate : 23.976 fps
Color space : YUV
Chroma subsampling : 4:2:0
Bit depth : 8 bits
Scan type : Progressive
Bits/(Pixel*Frame) : 0.250
Stream size : 3.69 GiB (75%)
Title : DON
Writing library : x264 core 120 r2164 da19765
Encoding settings : cabac=1 / ref=12 / deblock=1:-3:-3 / analyse=0x3:0x133 / me=tesa / subme=10 / psy=1 / psy_rd=0.80:0.05 / mixed_ref=1 / me_range=24 / chroma_me=1 / trellis=2 / 8x8dct=1 / cqm=0 / deadzone=21,11 / fast_pskip=0 / chroma_qp_offset=-3 / threads=6 / sliced_threads=0 / nr=0 / decimate=0 / interlaced=0 / bluray_compat=0 / constrained_intra=0 / bframes=8 / b_pyramid=2 / b_adapt=2 / b_bias=0 / direct=3 / weightb=1 / open_gop=0 / weightp=2 / keyint=250 / keyint_min=23 / scenecut=40 / intra_refresh=0 / rc_lookahead=60 / rc=2pass / mbtree=0 / bitrate=4173 / ratetol=1.0 / qcomp=0.60 / qpmin=0 / qpmax=69 / qpstep=4 / cplxblur=20.0 / qblur=0.5 / vbv_maxrate=50000 / vbv_bufsize=62500 / nal_hrd=none / ip_ratio=1.40 / pb_ratio=1.30 / aq=1:0.70
Language : English
Default : Yes
Forced : No
Audio #1
ID : 2
Format : AC-3
Format/Info : Audio Coding 3
Mode extension : CM (complete main)
Format settings, Endianness : Big
Codec ID : A_AC3
Duration : 2h 9mn
Bit rate mode : Constant
Bit rate : 640 Kbps
Channel(s) : 6 channels
Channel positions : Front: L C R, Side: L R, LFE
Sampling rate : 48.0 KHz
Bit depth : 16 bits
Compression mode : Lossy
Stream size : 595 MiB (12%)
Title : Dub BD CEE
Language : Russian
Default : Yes
Forced : No
Audio #2
ID : 3
Format : AC-3
Format/Info : Audio Coding 3
Mode extension : CM (complete main)
Format settings, Endianness : Big
Codec ID : A_AC3
Duration : 2h 9mn
Bit rate mode : Constant
Bit rate : 640 Kbps
Channel(s) : 6 channels
Channel positions : Front: L C R, Side: L R, LFE
Sampling rate : 48.0 KHz
Bit depth : 16 bits
Compression mode : Lossy
Stream size : 595 MiB (12%)
Title : Original
Language : English
Default : No
Forced : No
Text #1
ID : 4
Format : UTF-8
Codec ID : S_TEXT/UTF8
Codec ID/Info : UTF-8 Plain Text
Title : Forced
Language : Russian
Default : Yes
Forced : No
Text #2
ID : 5
Format : UTF-8
Codec ID : S_TEXT/UTF8
Codec ID/Info : UTF-8 Plain Text
Title : voronine (dub)
Language : Russian
Default : No
Forced : No
Text #3
ID : 6
Format : UTF-8
Codec ID : S_TEXT/UTF8
Codec ID/Info : UTF-8 Plain Text
Language : English
Default : No
Forced : No
Text #4
ID : 7
Format : UTF-8
Codec ID : S_TEXT/UTF8
Codec ID/Info : UTF-8 Plain Text
Title : SDH
Language : English
Default : No
Forced : No
Menu
00:00:00.000 : :00:00:00.000
00:10:02.977 : :00:10:02.977
00:17:42.728 : :00:17:42.728
00:27:33.694 : :00:27:33.694
00:37:43.720 : :00:37:43.720
00:43:53.631 : :00:43:53.631
00:50:02.208 : :00:50:02.208
00:58:16.785 : :00:58:16.785
01:04:57.435 : :01:04:57.435
01:11:15.313 : :01:11:15.313
01:19:48.200 : :01:19:48.200
01:30:14.576 : :01:30:14.576
01:36:08.096 : :01:36:08.096
01:43:21.862 : :01:43:21.862
01:51:52.915 : :01:51:52.915
01:57:54.818 : :01:57:54.818

Скриншоты

source vs DON






_________________
Показать сообщения:    

Текущее время: Сегодня 14:20

Часовой пояс: GMT



Вы не можете начинать темы
Вы не можете отвечать на сообщения
Вы не можете редактировать свои сообщения
Вы не можете удалять свои сообщения
Вы не можете голосовать в опросах
Вы не можете прикреплять файлы к сообщениям
Вы не можете скачивать файлы