Важное объявление!
У Нас Все раздачи мультитрекерные, при нуле пиров в релизах, можете смело вставать на закачку!
 
Автор Сообщение

HUNTER

Стаж:
4 года 4 месяца
Сообщений:
56772

Репутация: 101

[+] [-]
Вне форума [Профиль] [ЛС]

Аномализа / Anomalisa
-Год выпуска: 2015
Страна: США
Студия: Paramount Pictures
Жанр: мультфильм, драма, мелодрама, комедия
Продолжительность: 01:30:36
Перевод: Профессиональный (дублированный) Blu-ray CEE / Новый Диск
-Режиссёр: Дьюк Джонсон и Чарли Кауфман / Duke Johnson & Charlie Kaufman-Роли озвучивали: Дэвид Тьюлис, Дженнифер Джейсон Ли, Том Нунен-Роли дублировали: Александр Новиков, Татьяна Шитова, Андрей Гриневич.-Описание: Майкл Стоун, автор книг по обслуживанию клиентов, страдает от неспособности контактировать с людьми. Однажды, в ходе очередной рабочей поездки, он встречает незнакомку, которая меняет его мировосприятие.-РЕЛИЗ ОТ: -Качество: BDRip 1080p |ZQ|
Формат: MKV
Видео кодек: H.264
Аудио кодек: AC3, DTS
Видео: H.264, 1920x800 (2.40:1), 23.976 fps, ~12567 kbps, 0.333 bit/pixel
Аудио:
  • русская |Blu-ray CEE|: AC3, 48 kHz, 6 ch, 640 kbps
  • английская |Оригинал|: DTS, 48 kHz, 6 ch, 1509 kbps
Субтитры: русские, английские-Сэмпл \ Кинопоиск-

Скриншоты

Media Info

Код:
General
Unique ID                      : 242435635622872595347634448471724936470 (0xB66367AF9ACA5ED8933A5C8133E04D16)
Complete name                  : E:\Video\HD\Animated Movies (HD)\Anomalisa (2015) (BDRip 1080p).mkv
Format                         : Matroska
Format version                 : Version 4 / Version 2
File size                      : 9.32 GiB
Duration                       : 1h 30mn
Overall bit rate               : 14.7 Mbps
Encoded date                   : UTC 2016-08-03 10:37:57
Writing application            : mkvmerge v8.8.0 ('Wind at my back') 32bit
Writing library                : libebml v1.3.3 + libmatroska v1.4.4
DURATION                       : 01:30:36.438000000
NUMBER_OF_FRAMES               : 509666
NUMBER_OF_BYTES                : 1025447992
_STATISTICS_WRITING_APP        : mkvmerge v8.8.0 ('Wind at my back') 32bit
_STATISTICS_WRITING_DATE_UTC   : 2016-08-03 10:37:57
_STATISTICS_TAGS               : BPS DURATION NUMBER_OF_FRAMES NUMBER_OF_BYTES
Video
ID                             : 1
Format                         : AVC
Format/Info                    : Advanced Video Codec
Format profile                 : High@L4.1
Format settings, CABAC         : Yes
Format settings, ReFrames      : 5 frames
Codec ID                       : V_MPEG4/ISO/AVC
Duration                       : 1h 30mn
Bit rate                       : 12.3 Mbps
Width                          : 1 920 pixels
Height                         : 800 pixels
Display aspect ratio           : 2.40:1
Frame rate mode                : Constant
Frame rate                     : 23.976 fps
Color space                    : YUV
Chroma subsampling             : 4:2:0
Bit depth                      : 8 bits
Scan type                      : Progressive
Bits/(Pixel*Frame)             : 0.333
Stream size                    : 7.77 GiB (83%)
Writing library                : x264 core 148 r2692+54 69a6f49 t_mod_Custom [8-bit@all X86]
Encoding settings              : cabac=1 / ref=5 / deblock=1:-3:-3 / analyse=0x3:0x133 / me=umh / subme=10 / psy=1 / fade_compensate=0.00 / psy_rd=0.95:0.05 / mixed_ref=1 / me_range=64 / chroma_me=1 / trellis=2 / 8x8dct=1 / cqm=0 / deadzone=21,11 / fast_pskip=0 / chroma_qp_offset=-3 / threads=10 / lookahead_threads=2 / sliced_threads=0 / nr=0 / decimate=0 / interlaced=0 / bluray_compat=0 / constrained_intra=0 / fgo=0 / bframes=12 / b_pyramid=2 / b_adapt=2 / b_bias=0 / direct=3 / weightb=1 / open_gop=0 / weightp=2 / keyint=250 / keyint_min=23 / scenecut=40 / intra_refresh=0 / rc=crf / mbtree=0 / crf=13.8000 / qcomp=0.65 / qpmin=0:0:0 / qpmax=69:69:69 / qpstep=4 / ip_ratio=1.40 / pb_ratio=1.30 / aq=2:0.98 / aq-sensitivity=10.00 / aq-factor=1.00:1.00:1.00 / aq2=1:0.90 / aq2-sensitivity=10.50 / aq2-factor=1.00:1.00:1.00 / aq3=0 / zones=107496,114143,crf=13
Language                       : English
Default                        : Yes
Forced                         : No
DURATION                       : 01:30:36.431000000
NUMBER_OF_FRAMES               : 130344
NUMBER_OF_BYTES                : 8540297776
_STATISTICS_WRITING_APP        : mkvmerge v8.8.0 ('Wind at my back') 32bit
_STATISTICS_WRITING_DATE_UTC   : 2016-08-03 10:37:57
_STATISTICS_TAGS               : BPS DURATION NUMBER_OF_FRAMES NUMBER_OF_BYTES
Audio #1
ID                             : 2
Format                         : AC-3
Format/Info                    : Audio Coding 3
Mode extension                 : CM (complete main)
Format settings, Endianness    : Big
Codec ID                       : A_AC3
Duration                       : 1h 30mn
Bit rate mode                  : Constant
Bit rate                       : 640 Kbps
Channel(s)                     : 6 channels
Channel positions              : Front: L C R, Side: L R, LFE
Sampling rate                  : 48.0 KHz
Bit depth                      : 16 bits
Compression mode               : Lossy
Stream size                    : 415 MiB (4%)
Title                          : DUB (Blu-ray CEE / Новый Диск)
Language                       : Russian
Default                        : Yes
Forced                         : No
Audio #2
ID                             : 3
Format                         : DTS
Format/Info                    : Digital Theater Systems
Mode                           : 16
Format settings, Endianness    : Big
Codec ID                       : A_DTS
Duration                       : 1h 30mn
Bit rate mode                  : Constant
Bit rate                       : 1 509 Kbps
Channel(s)                     : 6 channels
Channel positions              : Front: L C R, Side: L R, LFE
Sampling rate                  : 48.0 KHz
Bit depth                      : 24 bits
Compression mode               : Lossy
Stream size                    : 978 MiB (10%)
Title                          : Original
Language                       : English
Default                        : No
Forced                         : No
Text #1
ID                             : 4
Format                         : UTF-8
Codec ID                       : S_TEXT/UTF8
Codec ID/Info                  : UTF-8 Plain Text
Title                          : Forced
Language                       : Russian
Default                        : Yes
Forced                         : No
Text #2
ID                             : 5
Format                         : UTF-8
Codec ID                       : S_TEXT/UTF8
Codec ID/Info                  : UTF-8 Plain Text
Title                          : Full
Language                       : Russian
Default                        : No
Forced                         : No
Text #3
ID                             : 6
Format                         : UTF-8
Codec ID                       : S_TEXT/UTF8
Codec ID/Info                  : UTF-8 Plain Text
Title                          : Original
Language                       : English
Default                        : No
Forced                         : No
Menu
00:00:00.000                   : en:Chapter 1
00:05:09.434                   : en:Chapter 2
00:12:29.415                   : en:Chapter 3
00:18:27.148                   : en:Chapter 4
00:18:27.189                   : en:Chapter 5
00:25:26.483                   : en:Chapter 6
00:31:39.648                   : en:Chapter 7
00:37:24.701                   : en:Chapter 8
00:43:19.931                   : en:Chapter 9
00:52:19.219                   : en:Chapter 10
01:01:04.452                   : en:Chapter 11
01:07:04.979                   : en:Chapter 12
01:14:43.479                   : en:Chapter 13
01:19:26.762                   : en:Chapter 14
01:19:27.554                   : en:Chapter 15
01:23:23.999                   : en:Chapter 16
-

_________________
Показать сообщения:    

Текущее время: Сегодня 13:29

Часовой пояс: GMT



Вы не можете начинать темы
Вы не можете отвечать на сообщения
Вы не можете редактировать свои сообщения
Вы не можете удалять свои сообщения
Вы не можете голосовать в опросах
Вы не можете прикреплять файлы к сообщениям
Вы не можете скачивать файлы