Важное объявление!
У Нас Все раздачи мультитрекерные, при нуле пиров в релизах, можете смело вставать на закачку!
 
Автор Сообщение

HUNTER

Стаж:
4 года 4 месяца
Сообщений:
56772

Репутация: 101

[+] [-]
Вне форума [Профиль] [ЛС]

Анна Каренина / Anna Karenina
Страна: Великобритания
Студия: BBC Television Centre, Big Light Productions
Жанр: драма, экранизация
Год выпуска: 2012
Продолжительность: 02:09:32
Перевод 1: Профессиональный (дублированный) Blu-ray CEE
Перевод 2: Одноголосый (закадровый) Doctor_Joker
Cубтитры: русские (forced, full, Notabenoid), английские (Full, SDH, SDH Colored)
Оригинальная аудиодорожка: английский
Режиссер: Джо Райт / Joe Wright
В ролях: Кира Найтли, Аарон Джонсон (III), Джуд Лоу, Алисия Викандер, Келли МакДональд, Мэттью МакФадьен, Оливия Уильямс, Мишель Докери, Домналл Глисон, Эмили Уотсон, Рут Уилсон, Александра Роач, Рафаэль Персонна, Эрос Влахос, Кеннет Коллар, Холли Грэйнджер, Ширли Хендерсон, Билл Скарсгард, Люк Ньюберри, Баффи Дэвис
Описание: Встречая приехавшую из Петербурга мать, молодой блистательный офицер граф Вронский знакомится с женой влиятельного петербургского чиновника Анной Карениной. Огонь страсти вспыхивает мгновенно, но их любовь шокирует высшее общество. В мире, где правят предрассудки и стереотипы, ей придётся сделать поистине непростой выбор между семьёй и всепоглощающей страстью…

Тип релиза: BDRemux 1080p
Контейнер: MKV
Видео: VC-1, 1920x1080, 26775kbps, 23.976 fps
Аудио 1: Russian: 48 kHz, DTS, 3/2 (L,C,R,l,r) + LFE ch, ~768.00 kbps avg |Blu-ray CEE|
Аудио 2: Russian: DTS-HD Master Audio Russian / 5.1 / 48 kHz / 3288 kbps / 24-bit (DTS Core: 5.1 / 48 kHz / 1509 kbps / 24-bit) |Doctor_Joker|
Аудио 3: DTS-HD Master Audio English / 5.1 / 48 kHz / 3384 kbps / 24-bit (DTS Core: 5.1 / 48 kHz / 1509 kbps / 24-bit) |Original|
Чаптеры:есть

Доп.информация

Перевод Doctor_Joker доступен благодаря: MartinaG

MediaInfo

General
Unique ID : 241268099212803081657768269838415988187 (0xB5828BB255DF1B74B3595DF3E5B285DB)
Complete name : D:\Anna.Karenina.2012.D.BD-Remux.1080p -Talian-.mkv
Format : Matroska
Format version : Version 2
File size : 31.1 GiB
Duration : 2h 9mn
Overall bit rate mode : Variable
Overall bit rate : 34.3 Mbps
Movie name : Anna Karenina-Talian-
Encoded date : UTC 2014-11-26 19:41:44
Writing application : mkvmerge v5.7.0 ('The Whirlwind') built on Jul 8 2012 20:08:51
Writing library : libebml v1.2.3 + libmatroska v1.3.0
Video
ID : 1
Format : VC-1
Format profile : AP@L3
Codec ID : WVC1
Codec ID/Hint : Microsoft
Duration : 2h 9mn
Bit rate : 29.7 Mbps
Width : 1 920 pixels
Height : 1 080 pixels
Display aspect ratio : 16:9
Frame rate : 23.976 fps
Chroma subsampling : 4:2:0
Bit depth : 8 bits
Scan type : Progressive
Compression mode : Lossy
Bits/(Pixel*Frame) : 0.598
Stream size : 26.9 GiB (87%)
Title : BDRemux
Language : English
Default : Yes
Forced : No
Audio #1
ID : 2
Format : DTS
Format/Info : Digital Theater Systems
Codec ID : A_DTS
Duration : 2h 9mn
Bit rate mode : Constant
Bit rate : 755 Kbps
Channel(s) : 6 channels
Channel positions : Front: L C R, Side: L R, LFE
Sampling rate : 48.0 KHz
Bit depth : 24 bits
Compression mode : Lossy
Stream size : 699 MiB (2%)
Title : DUB-Blu-ray CEE
Language : Russian
Default : Yes
Forced : No
Audio #2
ID : 3
Format : DTS
Format/Info : Digital Theater Systems
Format profile : MA / Core
Codec ID : A_DTS
Duration : 2h 9mn
Bit rate mode : Variable
Bit rate : 1 561 Kbps / 1 510 Kbps
Channel(s) : 6 channels
Channel positions : Front: L C R, Side: L R, LFE
Sampling rate : 48.0 KHz
Bit depth : 24 bits
Compression mode : Lossless / Lossy
Title : VO-Doctor_Joker
Language : Russian
Default : No
Forced : No
Audio #3
ID : 4
Format : DTS
Format/Info : Digital Theater Systems
Format profile : MA / Core
Codec ID : A_DTS
Duration : 2h 9mn
Bit rate mode : Variable
Bit rate : 1 576 Kbps / 1 510 Kbps
Channel(s) : 6 channels
Channel positions : Front: L C R, Side: L R, LFE
Sampling rate : 48.0 KHz
Bit depth : 24 bits
Compression mode : Lossless / Lossy
Title : Original
Language : English
Default : No
Forced : No
Text #1
ID : 5
Format : UTF-8
Codec ID : S_TEXT/UTF8
Codec ID/Info : UTF-8 Plain Text
Title : Sub-forced
Language : Russian
Default : Yes
Forced : No
Text #2
ID : 6
Format : UTF-8
Codec ID : S_TEXT/UTF8
Codec ID/Info : UTF-8 Plain Text
Title : Sub-full
Language : Russian
Default : No
Forced : No
Text #3
ID : 7
Format : UTF-8
Codec ID : S_TEXT/UTF8
Codec ID/Info : UTF-8 Plain Text
Title : Sub-Notabenoid
Language : Russian
Default : No
Forced : No
Text #4
ID : 8
Format : UTF-8
Codec ID : S_TEXT/UTF8
Codec ID/Info : UTF-8 Plain Text
Title : Sub-full
Language : English
Default : No
Forced : No
Text #5
ID : 9
Format : UTF-8
Codec ID : S_TEXT/UTF8
Codec ID/Info : UTF-8 Plain Text
Title : Sub-SDH
Language : English
Default : No
Forced : No
Text #6
ID : 10
Format : UTF-8
Codec ID : S_TEXT/UTF8
Codec ID/Info : UTF-8 Plain Text
Title : Sub-SDH Colored
Language : English
Default : No
Forced : No
Menu
00:00:00.000 : en:
00:05:36.294 : en:
00:11:42.076 : en:
00:19:59.156 : en:
00:25:26.900 : en:
00:32:40.750 : en:
00:39:52.056 : en:
00:46:59.107 : en:
00:54:00.362 : en:
01:00:36.257 : en:
01:07:13.529 : en:
01:14:52.070 : en:
01:22:30.070 : en:
01:27:00.548 : en:
01:31:49.378 : en:
01:36:12.975 : en:
01:42:42.906 : en:
01:47:57.971 : en:
01:55:04.522 : en:
02:01:45.923 : en:

Скриншоты




_________________
Показать сообщения:    

Текущее время: Сегодня 10:58

Часовой пояс: GMT



Вы не можете начинать темы
Вы не можете отвечать на сообщения
Вы не можете редактировать свои сообщения
Вы не можете удалять свои сообщения
Вы не можете голосовать в опросах
Вы не можете прикреплять файлы к сообщениям
Вы не можете скачивать файлы