Важное объявление!
У Нас Все раздачи мультитрекерные, при нуле пиров в релизах, можете смело вставать на закачку!
 
Автор Сообщение

HUNTER

Стаж:
4 года 4 месяца
Сообщений:
56722

Репутация: 101

[+] [-]
Вне форума [Профиль] [ЛС]

Анна Каренина / Anna Karenina

-Год выпуска: 2012
Страна: Великобритания
Жанр: драма, мелодрама
Продолжительность: 02:04:21
Перевод: Профессиональный (полное дублирование) [Лицензия]
Субтитры: English, Russian, Polish, Arabicm Islenska, Estonian, Latvian, Lithuanian-Режиссер: Джо Райт
В ролях: Кира Найтли, Аарон Джонсон (III), Джуд Лоу, Алисия Викандер, Келли МакДональд, Мэттью МакФадьен,
Оливия Уильямс, Мишель Докери, Домналл Глисон, Эмили Уотсон, Рут Уилсон, Александра Роач,
Рафаэль Персонна, Эрос Влахос, Кеннет Коллар, Холли Грэйнджер, Ширли Хендерсон, Билл Скарсгард, Люк Ньюберри, Баффи Дэвис....-Описание:
Встречая приехавшую из Петербурга мать, молодой блистательный офицер граф
Вронский знакомится с женой влиятельного петербургского чиновника Анной Карениной.
Огонь страсти вспыхивает мгновенно, но их любовь шокирует высшее общество.
В мире, где правят предрассудки и стереотипы, ей придётся сделать поистине непростой выбор между семьёй и всепоглощающей страстью…-Качество: DVD9
Формат: DVD Video
Видео кодек: MPEG2
Аудио кодек: AC3
Видео: PAL 16:9 (720x576) 6738 Kbps, 25 fps
Аудио 1: Russian AC3 48 kHz, 384 kbps(6 ch)16 bits
Аудио 2: English AC3 48 kHz, 384 kbps(6 ch)16 bits
Аудио 3: Polish AC3 48 kHz, 384 kbps(6 ch)16 bits
-Сохранены оригинальные чаптеры как на Blu-ray.-

Рейтинги:


-

Media Info:


General
Complete name : Anna.Karenina.2012.DVD9
Format : MPEG-PS
File size : 1 024 MiB
Duration : 17mn 21s
Overall bit rate : 8 246 Kbps
Video
ID : 224 (0xE0)
Format : MPEG Video
Format version : Version 2
Format profile : Main@Main
Format settings, BVOP : Yes
Format settings, Matrix : Custom
Duration : 17mn 21s
Bit rate mode : Variable
Bit rate : 6 738 Kbps
Maximum bit rate : 9 800 Kbps
Width : 720 pixels
Height : 576 pixels
Display aspect ratio : 16:9
Frame rate : 25.000 fps
Standard : PAL
Color space : YUV
Chroma subsampling : 4:2:0
Bit depth : 8 bits
Scan type : Interlaced
Scan order : Top Field First
Compression mode : Lossy
Bits/(Pixel*Frame) : 0.650
Stream size : 837 MiB (82%)
Audio #1
ID : 189 (0xBD)-128 (0x80)
Format : AC-3
Format/Info : Audio Coding 3
Mode extension : CM (complete main)
Muxing mode : DVD-Video
Duration : 17mn 21s
Bit rate mode : Constant
Bit rate : 384 Kbps
Channel(s) : 6 channels
Channel positions : Front: L C R, Side: L R, LFE
Sampling rate : 48.0 KHz
Bit depth : 16 bits
Compression mode : Lossy
Stream size : 47.7 MiB (5%)
Audio #2
ID : 189 (0xBD)-129 (0x81)
Format : AC-3
Format/Info : Audio Coding 3
Mode extension : CM (complete main)
Muxing mode : DVD-Video
Duration : 17mn 21s
Bit rate mode : Constant
Bit rate : 384 Kbps
Channel(s) : 6 channels
Channel positions : Front: L C R, Side: L R, LFE
Sampling rate : 48.0 KHz
Bit depth : 16 bits
Compression mode : Lossy
Stream size : 47.7 MiB (5%)
Audio #3
ID : 189 (0xBD)-130 (0x82)
Format : AC-3
Format/Info : Audio Coding 3
Mode extension : CM (complete main)
Muxing mode : DVD-Video
Duration : 17mn 21s
Bit rate mode : Constant
Bit rate : 384 Kbps
Channel(s) : 6 channels
Channel positions : Front: L C R, Side: L R, LFE
Sampling rate : 48.0 KHz
Bit depth : 16 bits
Compression mode : Lossy
Stream size : 47.7 MiB (5%)
Audio #4
ID : 189 (0xBD)-131 (0x83)
Format : AC-3
Format/Info : Audio Coding 3
Format profile : Dolby Digital
Mode extension : CM (complete main)
Muxing mode : DVD-Video
Duration : 17mn 21s
Bit rate mode : Constant
Bit rate : 192 Kbps
Channel(s) : 2 channels
Channel positions : Front: L R
Sampling rate : 48.0 KHz
Bit depth : 16 bits
Compression mode : Lossy
Stream size : 23.8 MiB (2%)
Text #1
ID : 189 (0xBD)-32 (0x20)
Format : RLE
Format/Info : Run-length encoding
Muxing mode : DVD-Video
Text #2
ID : 189 (0xBD)-33 (0x21)
Format : RLE
Format/Info : Run-length encoding
Muxing mode : DVD-Video
Text #3
ID : 189 (0xBD)-34 (0x22)
Format : RLE
Format/Info : Run-length encoding
Muxing mode : DVD-Video
Text #4
ID : 189 (0xBD)-35 (0x23)
Format : RLE
Format/Info : Run-length encoding
Muxing mode : DVD-Video
Text #5
ID : 189 (0xBD)-36 (0x24)
Format : RLE
Format/Info : Run-length encoding
Muxing mode : DVD-Video
Text #6
ID : 189 (0xBD)-37 (0x25)
Format : RLE
Format/Info : Run-length encoding
Muxing mode : DVD-Video
Text #7
ID : 189 (0xBD)-38 (0x26)
Format : RLE
Format/Info : Run-length encoding
Muxing mode : DVD-Video
Text #8
ID : 189 (0xBD)-39 (0x27)
Format : RLE
Format/Info : Run-length encoding
Muxing mode : DVD-Video
-

Знаете ли вы, что...


Роберту Паттинсону была предложена роль Вронского.
Джеймс МакЭвой рассматривался на роль Левина.
Сирша Ронан отказалась от роли Китти из-за продолжительного съемочного графика этой картины (с осени 2011 года до конца весны 2012-го), так как в этот период она должна была сняться в двух других проектах («Византия» и «Гостья»), в каждом из которых она сыграет главную роль. В итоге роль Китти получила Алисия Викандер.
Кейт Бланшетт, Бенедикт Камбербэтч и Андреа Райзборо также рассматривались на главные роли в фильме.
Сирша Ронан, Джеймс МакЭвой, Бенедикт Камбербэтч и Кейт Бланшетт ранее работали с режиссером Джо Райтом в разных картинах.
Часть съемок прошла в России, а именно в Карелии на острове Кижи.
Оператор-постановщик Филипп Русло был вынужден покинуть проект на стадии препродакшна, чтобы сделать операцию на спине. Мучительные боли от радикулита не оставили ему выбора. Ему на смену пришел Шеймас МакГарви, который часто работал вместе с режиссером Джо Райтом.
Был момент, когда Джо Райт задумался о том, чтобы актеры говорили с русским акцентом, но передумал, посчитав, что тогда ему будет тяжело оценить их актерскую игру.
Вдохновившись работой британского историка Орландо Файджеса Natasha`s Dance (2002), Джо Райт решился на экспериментальный подход, чтобы передать суть истории. Большая часть фильма была снята в закрытом театре, построенном с нуля в Шеппертоне, Великобритания. Сцены на катке, железнодорожном вокзале и конюшнях были сняты в верхней части театра. Во время съемок панорамных кадров использовали игрушечные поезда и кукольные домики. Единственным человеком из основного актерского состава, которому разрешалось покидать театр, был Домналл Глисон (Левин). Этим Райт хотел подчеркнуть тот факт, что только персонаж Левина отражает реальный мир.
-

Скриншоты:

-

_________________
Показать сообщения:    

Текущее время: Сегодня 10:13

Часовой пояс: GMT



Вы не можете начинать темы
Вы не можете отвечать на сообщения
Вы не можете редактировать свои сообщения
Вы не можете удалять свои сообщения
Вы не можете голосовать в опросах
Вы не можете прикреплять файлы к сообщениям
Вы не можете скачивать файлы