Важное объявление!
У Нас Все раздачи мультитрекерные, при нуле пиров в релизах, можете смело вставать на закачку!
 
Автор Сообщение

HUNTER

Стаж:
4 года 4 месяца
Сообщений:
56839

Репутация: 101

[+] [-]
Вне форума [Профиль] [ЛС]

Анна - королева пиратов / Anne of the Indies
-Страна: США
Жанр: приключения, драма, мелодрама
Год выпуска: 1951
Продолжительность: 01:21:19-Перевод 1: Профессиональный (многоголосый закадровый) Светла
Перевод 2: Профессиональный (многоголосый закадровый) 20-й век Фокс-Cубтитры: английские
Оригинальная аудиодорожка: английский-Режиссер: Жак Турнёр / Jacques Tourneur-В ролях: Джин Питерс, Луи Журдан, Дебра Пейджит, Херберт Маршалл, Томас Гомес, Джеймс Робертсон Джастис, Фрэнсис Пьерло, Шон МакКлори, Холмс Херберт, Байрон Нельсон-Описание:
Поймав пирата Ла Рошеля, британские власти предлагают ему свободу в обмен на поимку двух морских разбойников - капитана Черная Борода и капитана Провидения. Ла Рошель попадает на борт корабля, которым командует Провидение. И тут он выясняет, что капитан Провидение - женщина...-Сэмпл: Скачать-Тип релиза: BDRip 720p
Контейнер: MKV-Видео: 986x720 (4:3); 6 000 Kbps; 25.000 fps;
Аудио 1: Russian; AC3; 48.0 KHz; 2ch; 192 Kbps MVO Светла
Аудио 2: Russian; AC3; 48.0 KHz; 2ch; 192 Kbps MVO 20-й век Фокс
Аудио 3: English; AC3; 48.0 KHz; 2ch; 192 Kbps

MediaInfo

Format : Matroska
Format version : Version 4 / Version 2
File size : 3.74 GiB
Duration : 1h 21mn
Overall bit rate : 6 580 Kbps
Encoded date : UTC 2016-05-12 13:18:59
Writing application : mkvmerge v8.3.0 ('Over the Horizon') 64bit
Writing library : libebml v1.3.1 + libmatroska v1.4.2
Attachments : poster.jpg
Video
ID : 1
Format : AVC
Format/Info : Advanced Video Codec
Format profile : High@L4.1
Format settings, CABAC : Yes
Format settings, ReFrames : 11 frames
Codec ID : V_MPEG4/ISO/AVC
Duration : 1h 21mn
Bit rate : 6 000 Kbps
Width : 986 pixels
Height : 720 pixels
Display aspect ratio : 4:3
Frame rate mode : Constant
Frame rate : 25.000 fps
Color space : YUV
Chroma subsampling : 4:2:0
Bit depth : 8 bits
Scan type : Progressive
Bits/(Pixel*Frame) : 0.338
Stream size : 3.41 GiB (91%)
Writing library : x264 core 148 r2638 7599210
Encoding settings : cabac=1 / ref=11 / deblock=1:-3:-3 / analyse=0x3:0x133 / me=umh / subme=10 / psy=1 / psy_rd=1.00:0.50 / mixed_ref=1 / me_range=32 / chroma_me=1 / trellis=2 / 8x8dct=1 / cqm=0 / deadzone=21,11 / fast_pskip=0 / chroma_qp_offset=-4 / threads=6 / lookahead_threads=1 / sliced_threads=0 / nr=0 / decimate=0 / interlaced=0 / bluray_compat=0 / constrained_intra=0 / bframes=8 / b_pyramid=2 / b_adapt=2 / b_bias=0 / direct=3 / weightb=1 / open_gop=0 / weightp=2 / keyint=250 / keyint_min=25 / scenecut=40 / intra_refresh=0 / rc_lookahead=60 / rc=2pass / mbtree=0 / bitrate=6000 / ratetol=1.0 / qcomp=0.65 / qpmin=0 / qpmax=69 / qpstep=4 / cplxblur=20.0 / qblur=0.5 / vbv_maxrate=62500 / vbv_bufsize=78125 / nal_hrd=none / filler=0 / ip_ratio=1.40 / pb_ratio=1.30 / aq=1:1.00
Default : Yes
Forced : No
Audio #1
ID : 2
Format : AC-3
Format/Info : Audio Coding 3
Mode extension : CM (complete main)
Format settings, Endianness : Big
Codec ID : A_AC3
Duration : 1h 21mn
Bit rate mode : Constant
Bit rate : 192 Kbps
Channel(s) : 2 channels
Channel positions : Front: L R
Sampling rate : 48.0 KHz
Frame rate : 31.250 fps (1536 spf)
Compression mode : Lossy
Stream size : 112 MiB (3%)
Title : MVO Светла
Language : Russian
Default : Yes
Forced : No
Audio #2
ID : 3
Format : AC-3
Format/Info : Audio Coding 3
Mode extension : CM (complete main)
Format settings, Endianness : Big
Codec ID : A_AC3
Duration : 1h 21mn
Bit rate mode : Constant
Bit rate : 192 Kbps
Channel(s) : 2 channels
Channel positions : Front: L R
Sampling rate : 48.0 KHz
Frame rate : 31.250 fps (1536 spf)
Compression mode : Lossy
Stream size : 112 MiB (3%)
Title : MVO 20-й век Фокс
Language : Russian
Default : No
Forced : No
Audio #3
ID : 4
Format : AC-3
Format/Info : Audio Coding 3
Mode extension : CM (complete main)
Format settings, Endianness : Big
Codec ID : A_AC3
Duration : 1h 21mn
Bit rate mode : Constant
Bit rate : 192 Kbps
Channel(s) : 2 channels
Channel positions : Front: L R
Sampling rate : 48.0 KHz
Frame rate : 31.250 fps (1536 spf)
Compression mode : Lossy
Stream size : 112 MiB (3%)
Language : English
Default : No
Forced : No
Text
ID : 5
Format : UTF-8
Codec ID : S_TEXT/UTF8
Codec ID/Info : UTF-8 Plain Text
Duration : 1h 19mn
Bit rate : 63 bps
Count of elements : 1145
Stream size : 37.1 KiB (0%)
Language : English
Default : No
Forced : No
Menu
00:00:00.000 : en:
00:10:00.599 : en:
00:20:01.200 : en:
00:30:01.800 : en:
00:40:02.400 : en:
00:50:03.000 : en:
01:00:03.600 : en:
01:10:04.200 : en:

Скриншоты


_________________
Показать сообщения:    

Текущее время: Сегодня 21:04

Часовой пояс: GMT



Вы не можете начинать темы
Вы не можете отвечать на сообщения
Вы не можете редактировать свои сообщения
Вы не можете удалять свои сообщения
Вы не можете голосовать в опросах
Вы не можете прикреплять файлы к сообщениям
Вы не можете скачивать файлы