Важное объявление!
У Нас Все раздачи мультитрекерные, при нуле пиров в релизах, можете смело вставать на закачку!
 
Автор Сообщение

HUNTER

Стаж:
4 года 4 месяца
Сообщений:
56719

Репутация: 101

[+] [-]
Вне форума [Профиль] [ЛС]

Анна - королева пиратов / Anne of the Indies
Страна: США
Жанр: приключения, драма, мелодрама
Год выпуска: 1951
Продолжительность: 01:21:19
Перевод 1: Профессиональный (многоголосый закадровый) Светла
Перевод 2: Профессиональный (многоголосый закадровый) 20-й век Фокс
Cубтитры: английские
Оригинальная аудиодорожка: английский
-
Режиссер: Жак Турнёр / Jacques Tourneur
В ролях: Джин Питерс, Луи Журдан, Дебра Пейджит, Херберт Маршалл, Томас Гомес, Джеймс Робертсон Джастис, Фрэнсис Пьерло, Шон МакКлори, Холмс Херберт, Байрон Нельсон
-
Описание: Поймав пирата Ла Рошеля, британские власти предлагают ему свободу в обмен на поимку двух морских разбойников - капитана Черная Борода и капитана Провидения. Ла Рошель попадает на борт корабля, которым командует Провидение. И тут он выясняет, что капитан Провидение - женщина...

Тип релиза: BDRemux 1080i
Контейнер: MKV
Видео: MPEG-4 AVC / PAL 16:9 / 1920x1080 (1,33:1) / 24988 kbps / 25 fps / 0.472 bit/pixel / High@L4.1
Аудио 1: Russian / AC3 / 48 kHz / 2.0 Ch / 192 kbps / 16 bit / MVO / Светла
Аудио 2: Russian / AC3 / 48 kHz / 2.0 Ch / 192 kbps / 16 bit / MVO / 20-й век Фокс
Аудио 3: English / AC3 / 48 kHz / 2.0 Ch / 192 kbps / 16 bit / Original
Формат субтитров: softsub (SRT)
Навигация по главам: есть

MediaInfo

Общее
Уникальный идентификатор : 252513741206617158585614471978907809159 (0xBDF860A78102496FBB118F3C3E7F3587)
Полное имя : D:\Anne of the Indies.1951.BDRemux.1080i.mkv
Формат : Matroska
Версия формата : Version 4 / Version 2
Размер файла : 14,5 Гбайт
Продолжительность : 1 ч. 21 м.
Режим общего битрейта : Переменный
Общий поток : 25,6 Мбит/сек
Дата кодирования : UTC 2015-09-05 22:59:22
Программа кодирования : mkvmerge v8.3.0 ('Over the Horizon') 64bit
Библиотека кодирования : libebml v1.3.1 + libmatroska v1.4.2
DURATION : 01:19:31.720000000
NUMBER_OF_FRAMES : 1145
NUMBER_OF_BYTES : 38033
_STATISTICS_WRITING_APP : mkvmerge v8.3.0 ('Over the Horizon') 64bit
_STATISTICS_WRITING_DATE_UTC : 2015-09-05 22:59:22
_STATISTICS_TAGS : BPS DURATION NUMBER_OF_FRAMES NUMBER_OF_BYTES
Видео
Идентификатор : 1
Формат : AVC
Формат/Информация : Advanced Video Codec
Профиль формата : High@L4.1
Параметр CABAC формата : Да
Параметр ReFrames формата : 4 кадра
Идентификатор кодека : V_MPEG4/ISO/AVC
Продолжительность : 1 ч. 21 м.
Вид битрейта : Переменный
Битрейт : 24,5 Мбит/сек
Максимальный битрейт : 30,0 Мбит/сек
Ширина : 1920 пикселей
Высота : 1080 пикселей
Соотношение сторон : 16:9
Режим частоты кадров : Постоянный
Частота кадров : 25,000 кадров/сек
Стандарт вещания : PAL
Цветовое пространство : YUV
Субдискретизация насыщенности : 4:2:0
Битовая глубина : 8 бит
Тип развёртки : Чересстрочная
Порядок развёртки : Верхнее поле первое
Бит/(Пиксели*Кадры) : 0.472
Размер потока : 13,9 Гбайт (96%)
Язык : English
Default : Да
Forced : Нет
Цветовой диапазон : Limited
Основные цвета : BT.709
Характеристики трансфера : BT.709
Коэффициенты матрицы : BT.709
Аудио #1
Идентификатор : 2
Формат : AC-3
Формат/Информация : Audio Coding 3
Расширение режима : CM (complete main)
Параметр Endianness формата : Big
Идентификатор кодека : A_AC3
Продолжительность : 1 ч. 21 м.
Вид битрейта : Постоянный
Битрейт : 192 Кбит/сек
Каналы : 2 канала
Расположение каналов : Front: L R
Частота : 48,0 КГц
Битовая глубина : 16 бит
Метод сжатия : С потерями
Размер потока : 112 Мбайт (1%)
Заголовок : MVO / Светла
Язык : Russian
Default : Да
Forced : Нет
Аудио #2
Идентификатор : 3
Формат : AC-3
Формат/Информация : Audio Coding 3
Расширение режима : CM (complete main)
Параметр Endianness формата : Big
Идентификатор кодека : A_AC3
Продолжительность : 1 ч. 21 м.
Вид битрейта : Постоянный
Битрейт : 192 Кбит/сек
Каналы : 2 канала
Расположение каналов : Front: L R
Частота : 48,0 КГц
Битовая глубина : 16 бит
Метод сжатия : С потерями
Размер потока : 112 Мбайт (1%)
Заголовок : MVO / 20-й век Фокс
Язык : Russian
Default : Нет
Forced : Нет
Аудио #3
Идентификатор : 4
Формат : AC-3
Формат/Информация : Audio Coding 3
Расширение режима : CM (complete main)
Параметр Endianness формата : Big
Идентификатор кодека : A_AC3
Продолжительность : 1 ч. 21 м.
Вид битрейта : Постоянный
Битрейт : 192 Кбит/сек
Каналы : 2 канала
Расположение каналов : Front: L R
Частота : 48,0 КГц
Битовая глубина : 16 бит
Метод сжатия : С потерями
Размер потока : 112 Мбайт (1%)
Заголовок : Original
Язык : English
Default : Нет
Forced : Нет
Текст
Идентификатор : 5
Формат : UTF-8
Идентификатор кодека : S_TEXT/UTF8
Идентификатор кодека/Информация : UTF-8 Plain Text
Заголовок : Original
Язык : English
Default : Нет
Forced : Нет
Меню
00:00:00.000 : en:
00:10:00.599 : en:
00:20:01.200 : en:
00:30:01.800 : en:
00:40:02.400 : en:
00:50:03.000 : en:
01:00:03.600 : en:
01:10:04.200 : en:

_________________
Показать сообщения:    

Текущее время: Сегодня 18:15

Часовой пояс: GMT



Вы не можете начинать темы
Вы не можете отвечать на сообщения
Вы не можете редактировать свои сообщения
Вы не можете удалять свои сообщения
Вы не можете голосовать в опросах
Вы не можете прикреплять файлы к сообщениям
Вы не можете скачивать файлы