Важное объявление!
У Нас Все раздачи мультитрекерные, при нуле пиров в релизах, можете смело вставать на закачку!
 
Автор Сообщение

HUNTER

Стаж:
4 года 4 месяца
Сообщений:
56755

Репутация: 101

[+] [-]
Вне форума [Профиль] [ЛС]

Ани Лорак - Обними Меня
-Год производства: 2012 г.
Страна: Россия
Жанр: Pop
Продолжительность: 00:03:22-Описание: «Мне очень повезло, что у меня такие прекрасные поклонники, которые всегда поддерживают меня. Я благодарна за ваше внимание к этой работе, в которую вложено много труда, любви и тепла. Мне хотелось, чтобы клип понравился вам. И я рада, что «Обними меня» нашел отклик в сердцах миллионов!»
-Качество видео: HDTVRip 1080p
Формат видео: mp4
Видео кодек: AVC
Аудио кодек: AAC
Видео: 3 817 Kbps, 1920x1080 pixels, 25.000 fps
Аудио: 48 kHz, 2 ch, ~150.00 kbps avg
-

Скриншоты

MediaInfo

Код: copyText_writeLink('this.parentNode.parentNode.nextSibling.nextSibling');
General
Complete name : D:\Торенты\Ани Лорак - Обними меня 1080p.mp4
Format : MPEG-4
Format profile : Base Media / Version 2
Codec ID : mp42
File size : 95.9 MiB
Duration : 3mn 22s
Overall bit rate mode : Variable
Overall bit rate : 3 969 Kbps
Encoded date : UTC 2012-03-09 20:47:25
Tagged date : UTC 2012-03-09 20:47:25
gsst : 0
gstd : 202801
gssd : B4A7DA8EBHH1331553829079366
gshh : o-o.preferred.svo01s01.v11.lscache3.c.youtube.com
Video
ID : 1
Format : AVC
Format/Info : Advanced Video Codec
Format profile : [url=mailto:High@L4.0]High@L4.0[/url]
Format settings, CABAC : Yes
Format settings, ReFrames : 1 frame
Codec ID : avc1
Codec ID/Info : Advanced Video Coding
Duration : 3mn 22s
Bit rate : 3 817 Kbps
Maximum bit rate : 6 946 Kbps
Width : 1 920 pixels
Height : 1 080 pixels
Display aspect ratio : 16:9
Frame rate mode : Constant
Frame rate : 25.000 fps
Color space : YUV
Chroma subsampling : 4:2:0
Bit depth : 8 bits
Scan type : Progressive
Bits/(Pixel*Frame) : 0.074
Stream size : 92.3 MiB (96%)
Tagged date : UTC 2012-03-09 20:47:25
Audio
ID : 2
Format : AAC
Format/Info : Advanced Audio Codec
Format profile : LC
Codec ID : 40
Duration : 3mn 22s
Bit rate mode : Variable
Bit rate : 150 Kbps
Maximum bit rate : 184 Kbps
Channel(s) : 2 channels
Channel positions : Front: L R
Sampling rate : 44.1 KHz
Compression mode : Lossy
Stream size : 3.62 MiB (4%)
Title : IsoMedia File Produced by Google, 5-11-2011
Encoded date : UTC 2012-03-09 20:47:25
Tagged date : UTC 2012-03-09 20:47:25
Group of music принимает заявки в стол заказов

_________________
Показать сообщения:    

Текущее время: Сегодня 16:14

Часовой пояс: GMT



Вы не можете начинать темы
Вы не можете отвечать на сообщения
Вы не можете редактировать свои сообщения
Вы не можете удалять свои сообщения
Вы не можете голосовать в опросах
Вы не можете прикреплять файлы к сообщениям
Вы не можете скачивать файлы