Важное объявление!
У Нас Все раздачи мультитрекерные, при нуле пиров в релизах, можете смело вставать на закачку!
 
Автор Сообщение

HUNTER

Стаж:
4 года 4 месяца
Сообщений:
56829

Репутация: 101

[+] [-]
Вне форума [Профиль] [ЛС]

Ангел: трилогия / The Angel collection
Страна: США
Перевод: Авторский (одноголосый) М.Иванов
Субтитры: нет
Оригинальная аудиодорожка: английский-Ангелочек / Angel
Год выпуска: 1984
Студии: Adams Apple Film Company, Angel Venture, Planet Productions
Жанр: боевик, триллер, криминал
Продолжительность: 01:32:52
Режиссер: Роберт Винсент О’Нил / Robert Vincent O'Neill
В ролях: Клифф Гормен, Сьюзен Тиррел, Дик Шоун, Рори Кэлхун, Донна Уилкс, Джон Дил, Элейн Гифтос, Донна МакДэниэл, Graem McGavin, Мэл Картер...
Описание: Днем все знают Молли как прилежную школьницу. Она сторонится игр и друзей — ведь дома ждет больная мать. Ночью она становится Ангелом — проституткой с бульвара Голливуд.
Молли вынуждена подчиняться законам этой ночной жизни и оказывается втянутой в ее мрачный водоворот. Убита ее подруга Лана, по следам самой Молли с одной стороны идет лейтенант полиции Эндрюс, а с другой — наемный убийца.

Бюджет: $3 000 000

Постер фильма

-Ангелочек-мстительница / Avenging Angel
Год выпуска: 1985
Студии: Avenging Venture, New World Pictures, Republic Entertainment International
Жанр: боевик, триллер, криминал
Продолжительность: 01:33:34
Режиссер: Роберт Винсент О’Нил / Robert Vincent O'Neill
В ролях: Бетси Расселл, Рори Кэлхун, Сьюзен Тиррел, Осси Дэвис, Роберт Ф. Лайонс, Стивен Портер, Пол Ламберт, Бэрри Перл, Эсте Чэндлер, Тим Россович...
Описание: Бывшая малолетняя проститутка Молли Стюарт узнает, что убит лейтенант Эндрюс, который когда-то помог ей покончить с уличной жизнью. Молли бросает свою благополучную жизнь и учебу в институте, чтобы вернуться на бульвар Голливуд и отомстить за его смерть.
Она любит головокружительные трюки, когда адреналин выбрасывается в кровь. Она участница всех погонь и беспощадных перестрелок. В жестокой борьбе с преступниками Ангел вершит свою месть…

Постер фильма

-Ангелочек 3: Последняя глава / Angel III: The Final Chapter
Год выпуска: 1988
Студия: New World Pictures
Жанр: боевик, драма
Продолжительность: 01:39:14
Режиссер: Том ДеСимоне / Tom DeSimone
В ролях: Митци Кэптчер, Марк Блэнкфилд, Emile Beaucard, Мод Эдамс, Кин Шрайнер, Тони Фере, С.А. Гриффин, Ричард Раундтри, Анна Наварро, Сьюзэн Мур...
Описание: Молли Стюарт встречает на одной из выставок в Нью-Йорке женщину, которая кажется ей странно знакомой. Позже она узнаёт, что это её мать, но воссоединения семьи не происходит — женщина вскоре погибает при взрыве, успев сообщить Молли, что у той есть сестра, и она в большой опасности.

Постер фильма

-
Исходник:
Тип релиза: DVDRip
Контейнер: AVI
Видео: 720x384 (1.875:1), 23.976 fps, XviD MPEG-4 ~ 1793 kbps avg, 0.272 bit/pixel
Аудио 1: 48 kHz, АС3, 2 ch, ~ 192.00 kbps, Русский
Аудио 2: 48 kHz, АС3, 2 ch, ~ 192.00 kbps, Английский

MediaInfo 1 файла

Общее
Полное имя : Angel.trilogiya.1984-1988.A.DVDRip\1.avi
Формат : AVI
Формат/Информация : Audio Video Interleave
Размер файла : 1,43 Гбайт
Продолжительность : 1 ч. 32 м.
Общий поток : 2198 Кбит/сек
Программа кодирования : VirtualDubModRus 1.5.10.2 (build 2542/release)
Библиотека кодирования : VirtualDubMod build 2542/release
Видео
Идентификатор : 0
Формат : MPEG-4 Visual
Профиль формата : Advanced Simple@L5
Параметр BVOP формата : 1
Параметр QPel формата : Нет
Параметр GMC формата : Без точки перехода
Параметр матрицы формата : Выборочная
Идентификатор кодека : XVID
Идентификатор кодека/Подсказка : XviD
Продолжительность : 1 ч. 32 м.
Битрейт : 1800 Кбит/сек
Ширина : 720 пикселей
Высота : 384 пикселя
Соотношение сторон : 1,875
Частота кадров : 23,976 кадра/сек
Цветовое пространство : YUV
Субдискретизация насыщенности : 4:2:0
Битовая глубина : 8 бит
Тип развёртки : Прогрессивная
Метод сжатия : С потерями
Бит/(Пиксели*Кадры) : 0.272
Размер потока : 1,17 Гбайт (82%)
Библиотека кодирования : XviD 1.2.1 (UTC 2008-12-04)
Аудио #1
Идентификатор : 1
Формат : AC-3
Формат/Информация : Audio Coding 3
Профиль формата : Dolby Digital
Расширение режима : CM (complete main)
Идентификатор кодека : 2000
Продолжительность : 1 ч. 32 м.
Вид битрейта : Постоянный
Битрейт : 192 Кбит/сек
Каналы : 2 канала
Расположение каналов : Front: L R
Частота : 48,0 КГц
Битовая глубина : 16 бит
Метод сжатия : С потерями
Размер потока : 128 Мбайт (9%)
Выравнивание : Разделение по промежуткам
Продолжительность промежутка : 42 мс. (1,00 видеокадр)
Время предзагрузки промежутка : 500 мс.
Аудио #2
Идентификатор : 2
Формат : AC-3
Формат/Информация : Audio Coding 3
Расширение режима : CM (complete main)
Идентификатор кодека : 2000
Продолжительность : 1 ч. 32 м.
Вид битрейта : Постоянный
Битрейт : 192 Кбит/сек
Каналы : 2 канала
Расположение каналов : Front: L R
Частота : 48,0 КГц
Битовая глубина : 16 бит
Метод сжатия : С потерями
Размер потока : 128 Мбайт (9%)
Выравнивание : Разделение по промежуткам
Продолжительность промежутка : 42 мс. (1,00 видеокадр)
Время предзагрузки промежутка : 500 мс.

Скриншоты


_________________
Показать сообщения:    

Текущее время: Сегодня 20:10

Часовой пояс: GMT



Вы не можете начинать темы
Вы не можете отвечать на сообщения
Вы не можете редактировать свои сообщения
Вы не можете удалять свои сообщения
Вы не можете голосовать в опросах
Вы не можете прикреплять файлы к сообщениям
Вы не можете скачивать файлы