Важное объявление!
У Нас Все раздачи мультитрекерные, при нуле пиров в релизах, можете смело вставать на закачку!
 
Автор Сообщение

HUNTER

Стаж:
4 года 4 месяца
Сообщений:
56749

Репутация: 101

[+] [-]
Вне форума [Профиль] [ЛС]

Анатомия любви / Endless Love
Страна: США
Производство: Bluegrass Films, Fake Empire, Universal Pictures
Жанр: драма, мелодрама
Год выпуска: 2014
Продолжительность: 01:44:38
Перевод: Профессиональный (дублированный) BD CEE
Оригинальная аудиодорожка: английская
Cубтитры: русские (forced, full), английские (full, SDH, SDH-Colored), украинские (forced, full)
Режиссер: Шана Фест / Shana Feste
В ролях: Алекс Петтифер, Габриэлла Уайлд, Брюс Гринвуд, Джоэли Ричардсон, Роберт Патрик, Риз Уэйкфилд, Эмма Ригби, Дан Триандифлу, Эндрю Массет, Джонатан Веласкес, Джимми Гонзалес, Шарон Конли
Описание: Это история страстной любви девушки из высшего общества и красивого и дерзкого молодого человека. Они хотят быть вместе, несмотря ни на какие обстоятельства и препятствия…

Релиз: fanatus
Качество видео: BDRip 1080p
Исходник: ENDLESS_LOVE_BD_EUR_BLUEBIRD
Контейнер: MKV
Видео: MPEG-4 AVC, 17.9 Mbps , 1920x816 (2.35:1), 23.976 fps, 0.477 bit/pixel
Аудио 1: русский (DTS, 6 ch, 48 kHz, 768 kbps)
Аудио 2: английский (DTS, 6 ch, 48 kHz, 1510 kbps)
Формат субтитров: softsub (SRT)
Главы: есть
MediaInfo
General
Unique ID : 248350076041425998792530521529303007617 (0xBAD67C1CC391C2989DD768AD55ED8181)
Complete name : E:\Anatomija_ljubvi.2014.x264.BDRip.1080p.fanatus.mkv
Format : Matroska
Format version : Version 2
File size : 14.7 GiB
Duration : 1h 44mn
Overall bit rate : 20.2 Mbps
Movie name : Endless Love (2014) - fanatus
Encoded date : UTC 2014-06-05 18:43:23
Writing application : mkvmerge v3.4.0 ('Rapunzel') сборка от May 15 2010 09:38:20
Writing library : libebml v0.8.0 + libmatroska v0.9.0
Attachment : Yes
Video
ID : 1
Format : AVC
Format/Info : Advanced Video Codec
Format profile : High@L4.1
Format settings, CABAC : Yes
Format settings, ReFrames : 5 frames
Codec ID : V_MPEG4/ISO/AVC
Duration : 1h 44mn
Bit rate : 17.9 Mbps
Width : 1 920 pixels
Height : 816 pixels
Display aspect ratio : 2.35:1
Frame rate : 23.976 fps
Color space : YUV
Chroma subsampling : 4:2:0
Bit depth : 8 bits
Scan type : Progressive
Bits/(Pixel*Frame) : 0.477
Stream size : 12.8 GiB (87%)
Title : Endless Love (2014) BDRip(1080p)
Writing library : x264 core 142 r2431+42 c69a006 tMod [8-bit@all X86]
Encoding settings : cabac=1 / ref=5 / deblock=1:-3:-3 / analyse=0x3:0x113 / me=tesa / subme=11 / psy=1 / fade_compensate=0.00 / psy_rd=1.00:0.15 / mixed_ref=1 / me_range=48 / chroma_me=1 / trellis=2 / 8x8dct=1 / cqm=0 / deadzone=21,11 / fast_pskip=0 / chroma_qp_offset=-3 / threads=16 / lookahead_threads=4 / sliced_threads=0 / nr=0 / decimate=0 / interlaced=0 / bluray_compat=0 / constrained_intra=0 / fgo=0 / bframes=10 / b_pyramid=2 / b_adapt=2 / b_bias=0 / direct=3 / weightb=1 / open_gop=0 / weightp=2 / keyint=240 / keyint_min=23 / scenecut=40 / intra_refresh=0 / rc_lookahead=240 / rc=2pass / mbtree=1 / bitrate=17900 / ratetol=1.0 / qcomp=0.65 / qpmin=0:0:0 / qpmax=69:69:69 / qpstep=4 / cplxblur=20.0 / qblur=0.5 / vbv_maxrate=50000 / vbv_bufsize=62500 / nal_hrd=none / filler=0 / ip_ratio=1.30 / aq=4:0.60 / aq-sensitivity=10.00 / aq-factor=1.00:1.00:1.00 / aq2=0 / aq3=0
Language : English
Default : Yes
Forced : No
Audio #1
ID : 2
Format : DTS
Format/Info : Digital Theater Systems
Codec ID : A_DTS
Duration : 1h 44mn
Bit rate mode : Constant
Bit rate : 755 Kbps
Channel(s) : 6 channels
Channel positions : Front: L C R, Side: L R, LFE
Sampling rate : 48.0 KHz
Bit depth : 24 bits
Compression mode : Lossy
Stream size : 565 MiB (4%)
Title : Dub (BD CEE)
Language : Russian
Default : Yes
Forced : No
Audio #2
ID : 3
Format : DTS
Format/Info : Digital Theater Systems
Codec ID : A_DTS
Duration : 1h 44mn
Bit rate mode : Constant
Bit rate : 1 510 Kbps
Channel(s) : 6 channels
Channel positions : Front: L C R, Side: L R, LFE
Sampling rate : 48.0 KHz
Bit depth : 24 bits
Compression mode : Lossy
Stream size : 1.10 GiB (7%)
Title : Original
Language : English
Default : No
Forced : No
Text #1
ID : 4
Format : UTF-8
Codec ID : S_TEXT/UTF8
Codec ID/Info : UTF-8 Plain Text
Title : Forced
Language : Russian
Default : Yes
Forced : Yes
Text #2
ID : 5
Format : UTF-8
Codec ID : S_TEXT/UTF8
Codec ID/Info : UTF-8 Plain Text
Title : Full
Language : Russian
Default : No
Forced : No
Text #3
ID : 6
Format : UTF-8
Codec ID : S_TEXT/UTF8
Codec ID/Info : UTF-8 Plain Text
Title : Full
Language : English
Default : No
Forced : No
Text #4
ID : 7
Format : UTF-8
Codec ID : S_TEXT/UTF8
Codec ID/Info : UTF-8 Plain Text
Title : SDH
Language : English
Default : No
Forced : No
Text #5
ID : 8
Format : UTF-8
Codec ID : S_TEXT/UTF8
Codec ID/Info : UTF-8 Plain Text
Title : SDH-Colored
Language : English
Default : No
Forced : No
Text #6
ID : 9
Format : UTF-8
Codec ID : S_TEXT/UTF8
Codec ID/Info : UTF-8 Plain Text
Title : Forced
Language : Ukrainian
Default : No
Forced : No
Text #7
ID : 10
Format : UTF-8
Codec ID : S_TEXT/UTF8
Codec ID/Info : UTF-8 Plain Text
Title : Full
Language : Ukrainian
Default : No
Forced : No
Menu
00:00:00.000 : en:Chapter 01
00:05:46.220 : en:Chapter 02
00:11:45.162 : en:Chapter 03
00:15:51.533 : en:Chapter 04
00:19:43.724 : en:Chapter 05
00:25:26.816 : en:Chapter 06
00:29:42.989 : en:Chapter 07
00:35:30.670 : en:Chapter 08
00:39:56.644 : en:Chapter 09
00:45:14.211 : en:Chapter 10
00:49:02.022 : en:Chapter 11
00:54:55.917 : en:Chapter 12
00:59:51.588 : en:Chapter 13
01:04:43.212 : en:Chapter 14
01:10:01.947 : en:Chapter 15
01:16:55.986 : en:Chapter 16
01:23:17.033 : en:Chapter 17
01:29:33.993 : en:Chapter 18
01:35:54.081 : en:Chapter 19
01:39:26.752 : en:Chapter 20
01:44:38.188 : en:Chapter 21
x264 [info]
x264 [info]: 1920x816p 1:1 @ 24000/1001 fps (cfr)
x264 [info]: color matrix: undef
x264 [info]: using SAR=1/1
x264 [info]: using cpu capabilities: MMX2 SSE2Fast SSSE3 SSE4.2 AVX
x264 [info]: profile High, level 4.1
x264 [info]: started at Wed Jun 04 00:44:41 2014
x264 [info]: frame I:1077 Avg QP:16.11 size:292474
x264 [info]: frame P:33964 Avg QP:18.37 size:132448
x264 [info]: frame B:115491 Avg QP:19.93 size: 79922
x264 [info]: consecutive B-frames: 3.0% 3.1% 10.3% 12.2% 16.2% 49.8% 2.9% 0.5% 0.4% 0.5% 1.0%
x264 [info]: mb I I16..4: 38.5% 40.7% 20.8%
x264 [info]: mb P I16..4: 9.8% 19.4% 3.8% P16..4: 23.2% 27.6% 11.7% 0.0% 0.0% skip: 4.5%
x264 [info]: mb B I16..4: 10.9% 3.0% 1.2% B16..8: 28.6% 18.1% 3.7% direct:14.7% skip:19.7% L0:38.4% L1:34.7% BI:27.0%
x264 [info]: 8x8 transform intra:35.2% inter:31.2%
x264 [info]: direct mvs spatial:96.2% temporal:3.8%
x264 [info]: coded y,uvDC,uvAC intra: 97.9% 90.4% 82.2% inter: 52.0% 53.0% 32.5%
x264 [info]: i16 v,h,dc,p: 4% 4% 51% 42%
x264 [info]: i8 v,h,dc,ddl,ddr,vr,hd,vl,hu: 12% 9% 11% 9% 12% 12% 11% 12% 13%
x264 [info]: i4 v,h,dc,ddl,ddr,vr,hd,vl,hu: 11% 9% 20% 7% 11% 10% 10% 9% 12%
x264 [info]: i8c dc,h,v,p: 59% 12% 12% 17%
x264 [info]: Weighted P-Frames: Y:3.0% UV:1.7%
x264 [info]: ref P L0: 46.5% 9.9% 25.6% 8.5% 8.6% 0.9% 0.0%
x264 [info]: ref B L0: 77.8% 16.8% 4.2% 1.3%
x264 [info]: ref B L1: 93.5% 6.5%
x264 [info]: kb/s:17894.49
x264 [info]: encoded 150532 frames, 0.9414 fps, 17894.49 kb/s, 13393 MB
x264 [info]: ended at Thu Jun 05 21:09:49 2014
x264 [info]: encoding duration 44:25:08
Скриншот c названием фильмаСкриншотыSource vs Rip

_________________
Показать сообщения:    

Текущее время: Сегодня 03:43

Часовой пояс: GMT



Вы не можете начинать темы
Вы не можете отвечать на сообщения
Вы не можете редактировать свои сообщения
Вы не можете удалять свои сообщения
Вы не можете голосовать в опросах
Вы не можете прикреплять файлы к сообщениям
Вы не можете скачивать файлы